<?xml version="1.0" standalone="no"?>
<!DOCTYPE svg PUBLIC "-//W3C//DTD SVG 1.1//EN" "http://www.w3.org/Graphics/SVG/1.1/DTD/svg11.dtd" >
<svg xmlns="http://www.w3.org/2000/svg" xmlns:xlink="http://www.w3.org/1999/xlink" version="1.1">
<metadata>
Created by FontForge 20161013 at Tue Oct  9 23:04:48 2001
 By ,,,
Copyright (c) 1985, 1987, 1991, 1993, 1997, 1999 Adobe Systems Incorporated. All Rights Reserved.Helvetica is a trademark of Linotype-Hell AG and/or its subsidiaries.
</metadata>
<defs>
<font id="HelveticaLT-Condensed-Light" horiz-adv-x="444" >
  <font-face 
    font-family="Helvetica LT CondensedLight"
    font-weight="300"
    font-stretch="normal"
    units-per-em="1000"
    panose-1="2 0 4 6 4 0 0 2 0 4"
    ascent="800"
    descent="-200"
    x-height="552"
    cap-height="750"
    bbox="-170 -250 1000 986"
    underline-thickness="50"
    underline-position="-175"
    unicode-range="U+0020-FB02"
  />
<missing-glyph horiz-adv-x="222" 
 />
    <glyph glyph-name=".notdef" horiz-adv-x="222" 
 />
    <glyph glyph-name=".null" horiz-adv-x="0" 
 />
    <glyph glyph-name="nonmarkingreturn" horiz-adv-x="222" 
 />
    <glyph glyph-name="space" unicode=" " horiz-adv-x="222" 
 />
    <glyph glyph-name="space" unicode="&#xa0;" horiz-adv-x="222" 
 />
    <glyph glyph-name="exclam" unicode="!" horiz-adv-x="222" 
d="M77 13v88h69v-88h-69zM93 189q-4 91 -8 181t-4 181v199h64v-199q0 -91 -4 -181t-8 -181h-40z" />
    <glyph glyph-name="quotedbl" unicode="&#x22;" horiz-adv-x="309" 
d="M184 750h52v-226h-52v226zM73 750h52v-226h-52v226z" />
    <glyph glyph-name="numbersign" unicode="#" 
d="M242 300l34 131h-69l-35 -131h70zM113 249h-100l15 51h97l34 131h-99l15 51h96l65 262h48l-66 -262h70l65 262h47l-65 -262h96l-15 -51h-92l-34 -131h94l-15 -51h-91l-62 -249h-50l64 249h-70l-64 -249h-47z" />
    <glyph glyph-name="dollar" unicode="$" 
d="M197 660q-54 -8 -76.5 -42.5t-22.5 -85.5q0 -36 23 -73t76 -57v258zM244 37q28 1 50 13t36 31t21.5 43.5t7.5 51.5q0 28 -9 49.5t-25 38t-36.5 29t-44.5 22.5v-278zM244 -96h-47v82q-48 4 -81.5 23t-54 49t-29 69t-6.5 84h60q-2 -30 2.5 -59.5t17 -53.5t34.5 -40.5
t57 -19.5v298q-35 15 -64.5 33t-51 41.5t-34 54.5t-12.5 72q0 13 4.5 40t21 54.5t48.5 50.5t88 29v67h47v-62q47 -10 77 -30t47.5 -46t24 -56.5t6.5 -60.5h-58q0 21 -5 43t-16 40.5t-30 33t-46 20.5v-278q25 -11 60 -29.5t60 -41.5q28 -26 42 -57t14 -77q0 -83 -47 -132.5
t-129 -58.5v-82z" />
    <glyph glyph-name="percent" unicode="%" horiz-adv-x="778" 
d="M519 741h44l-304 -756h-44zM209 413q21 0 35 10.5t22.5 28.5t12 42.5t3.5 53.5q0 21 -1.5 44.5t-9 43.5t-22.5 34t-42 14t-43 -15t-23.5 -37t-9.5 -45t-2 -39q0 -76 20.5 -105.5t59.5 -29.5zM577 42q21 0 35 10.5t22.5 28.5t12 42.5t3.5 53.5q0 21 -1.5 44.5t-9 44
t-22.5 34.5t-42 14t-43 -15.5t-23.5 -37t-9.5 -45t-2 -39.5q0 -76 20.5 -105.5t59.5 -29.5zM207 728q40 0 65.5 -16t40 -41.5t20 -58t5.5 -65.5q0 -96 -35.5 -137t-96.5 -41q-43 0 -69 15t-40.5 40t-19 57t-4.5 66t5.5 67t20.5 58t41 40.5t67 15.5zM575 358q40 0 65.5 -16
t40 -41.5t20 -58t5.5 -65.5q0 -96 -35.5 -137.5t-96.5 -41.5q-43 0 -69 15.5t-40.5 40.5t-19 57t-4.5 66t5.5 67t20.5 58t41 40.5t67 15.5z" />
    <glyph glyph-name="ampersand" unicode="&#x26;" horiz-adv-x="611" 
d="M260 470q38 26 63 67.5t25 89.5q0 42 -18 62.5t-59 20.5q-36 0 -56 -20t-20 -58q0 -46 19.5 -86.5t45.5 -75.5zM242 383q-26 -20 -47 -39.5t-36 -42.5t-23 -50.5t-8 -62.5q0 -68 39 -108t103 -40q48 0 84 17.5t62 61.5zM215 431q-17 25 -31 47t-24.5 45.5t-16.5 49
t-6 57.5q0 66 38 102t100 36q29 0 54.5 -9t44 -26.5t29 -42.5t10.5 -56q0 -36 -9 -65.5t-25 -54.5t-38.5 -47t-48.5 -41l154 -244h2q0 2 1 3t2 3q13 38 18 76.5t6 78.5h65q0 -22 -3.5 -50t-9.5 -57.5t-14.5 -56t-18.5 -45.5l-4 -8l83 -133h-71l-51 76q-1 -1 -1.5 -2t-1.5 -2
q-37 -45 -80.5 -64t-99.5 -19q-95 0 -150 56t-55 156q0 42 12.5 76t33.5 62.5t48.5 52.5t57.5 46z" />
    <glyph glyph-name="quotesingle" unicode="'" horiz-adv-x="198" 
d="M73 750h52v-226h-52v226z" />
    <glyph glyph-name="parenleft" unicode="(" horiz-adv-x="278" 
d="M244 768q-69 -105 -98 -224t-29 -245q0 -132 28 -255t99 -235h-47q-75 114 -110 233t-35 256q0 125 35.5 246.5t109.5 223.5h47z" />
    <glyph glyph-name="parenright" unicode=")" horiz-adv-x="278" 
d="M34 -191q69 104 98 224t29 244q0 132 -27 249t-93 232q-2 2 -3.5 5t-3.5 5h47q70 -106 107.5 -227.5t37.5 -249.5q0 -130 -34 -253.5t-111 -228.5h-47z" />
    <glyph glyph-name="asterisk" unicode="*" horiz-adv-x="389" 
d="M48 630l14 42l112 -42v114h44v-114l111 42l13 -45l-109 -36l72 -105l-36 -24l-75 107l-77 -107l-35 27l74 104z" />
    <glyph glyph-name="plus" unicode="+" 
d="M21 220v51h176v219h51v-219h176v-51h-176v-220h-51v220h-176z" />
    <glyph glyph-name="comma" unicode="," horiz-adv-x="222" 
d="M77 -99q12 5 18.5 15t9 22t2.5 25v24v13h-30v88h69v-56v-35t-2 -36q-4 -45 -18.5 -66.5t-48.5 -30.5v37z" />
    <glyph glyph-name="hyphen" unicode="-" horiz-adv-x="333" 
d="M35 269v58h259v-58h-259z" />
    <glyph glyph-name="hyphen" unicode="&#xad;" horiz-adv-x="333" 
d="M35 269v58h259v-58h-259z" />
    <glyph glyph-name="period" unicode="." horiz-adv-x="222" 
d="M77 0v88h69v-88h-69z" />
    <glyph glyph-name="slash" unicode="/" horiz-adv-x="278" 
d="M234 750h55l-245 -844h-54z" />
    <glyph glyph-name="zero" unicode="0" 
d="M102 353q0 -87 6.5 -146.5t20 -96.5t35.5 -53.5t54 -16.5q11 0 24 1.5t27 10.5t27 28.5t23.5 54.5t16.5 89.5t6 133.5q0 72 -3 133t-15.5 105t-37.5 69t-70 25q-31 0 -52.5 -17t-35 -56t-20 -103.5t-6.5 -160.5zM37 370q0 120 15.5 193t41 113.5t59.5 54t72 13.5
q49 0 82 -21.5t53 -56t30 -78t13.5 -87t3.5 -82.5v-66q0 -67 -5 -133t-24.5 -118t-57 -84t-101.5 -32q-61 0 -97 31t-55 83.5t-24.5 122.5t-5.5 147z" />
    <glyph glyph-name="one" unicode="1" 
d="M60 607q38 1 68 7t51.5 21t34.5 41t17 68h53v-744h-65v572q-20 -4 -38 -5t-37 -3q-21 -2 -42 -3.5t-42 -0.5v47z" />
    <glyph glyph-name="two" unicode="2" 
d="M396 61v-61h-362v52q2 45 12 74.5t27.5 53.5t41.5 47t54 53q38 39 68 69t51 59t32 62.5t11 80.5q0 22 -5.5 46t-17.5 44t-30 33.5t-43 15.5q-41 5 -66.5 -8t-40 -37t-20 -56.5t-6.5 -65.5h-62q-2 44 8 84t32 70.5t56.5 48.5t82.5 18q39 0 71.5 -14t56 -40t36.5 -62.5
t13 -82.5q0 -60 -25.5 -112t-64 -98t-83 -87t-83.5 -80q-9 -9 -24.5 -36.5t-16.5 -70.5h297z" />
    <glyph glyph-name="three" unicode="3" 
d="M148 353v54h20q149 0 149 149q0 25 -5.5 49.5t-17.5 43t-32 30t-50 11.5q-31 0 -51 -13.5t-32 -34.5t-17 -47t-7 -51h-59q0 38 9 74t28.5 64t50 45t73.5 17q44 0 77 -14.5t54.5 -40.5t32.5 -61.5t11 -76.5q0 -11 -3 -32.5t-14 -45.5t-32.5 -48t-59.5 -39v-2
q39 -9 64 -28.5t39 -46t19.5 -56t5.5 -57.5q0 -51 -11.5 -86t-29.5 -58.5t-40 -36.5t-43 -19.5t-38 -8t-25 -1.5q-3 0 -18 0.5t-36 5t-44 16.5t-42.5 35t-32 59.5t-11.5 91.5h61q1 -30 6.5 -58t19.5 -49.5t37 -34t58 -12.5q34 0 58 13.5t38.5 35.5t21 50.5t6.5 58.5
q0 21 -5 47t-20.5 49.5t-44 40t-74.5 18.5h-44z" />
    <glyph glyph-name="four" unicode="4" 
d="M281 254v373h-2l-192 -373h194zM285 744h61v-490h66v-54h-66v-200h-65v200h-253v60z" />
    <glyph glyph-name="five" unicode="5" 
d="M91 178q1 -27 7.5 -51.5t19 -44t33.5 -31t52 -11.5q39 0 64 18t39.5 46.5t20.5 65t6 72.5q0 35 -5.5 68.5t-19.5 59t-39 41t-64 15.5q-35 0 -62 -20t-41 -52h-55l43 376h278v-61h-224l-28 -225l2 -2q20 23 48.5 30.5t52.5 7.5q52 0 86.5 -21t55 -54.5t29 -76.5t8.5 -88
q0 -48 -10 -94t-33 -81.5t-60 -57t-91 -21.5q-47 0 -79.5 14t-54 39.5t-32 61t-11.5 77.5h64z" />
    <glyph glyph-name="six" unicode="6" 
d="M222 416q-36 0 -59.5 -15.5t-37 -40.5t-18.5 -55t-5 -60q0 -29 5 -65t18 -67t36.5 -52t61.5 -21q36 0 59 19.5t36.5 48.5t19 62.5t5.5 61.5q0 30 -5 62.5t-18 59.5t-37 44.5t-61 17.5zM226 -14q-44 0 -75 16t-52 43t-33 61.5t-18.5 72.5t-8.5 75.5t-2 69.5q2 34 3 78.5
t6 91t16 91.5t33 80.5t56 57t85 21.5q35 0 64 -12t49.5 -33t32 -51.5t11.5 -67.5h-60q-2 25 -8.5 45t-18.5 34.5t-30.5 22.5t-45.5 8q-23 0 -40.5 -11t-30.5 -28t-22 -37.5t-13 -39.5q-9 -39 -14.5 -80.5t-7.5 -94.5h2q26 33 57.5 52t74.5 19q50 0 83.5 -22.5t53 -57
t27.5 -76t8 -78.5t-7.5 -81t-27.5 -81.5t-55.5 -62.5t-91.5 -25z" />
    <glyph glyph-name="seven" unicode="7" 
d="M51 730h361v-59q-24 -30 -49 -72.5t-47 -87t-40 -85.5t-28 -68q-35 -94 -49.5 -181.5t-21.5 -176.5h-65q4 79 21 167.5t47 177t72 172t95 152.5h-296v61z" />
    <glyph glyph-name="eight" unicode="8" 
d="M123 544q0 -25 5 -48t17 -40t31.5 -27.5t47.5 -10.5t47 12t30.5 31.5t16 43.5t4.5 48q0 26 -4.5 50.5t-16 44t-31 31t-49.5 11.5q-27 0 -45 -10.5t-28.5 -26.5t-16 -35t-7.5 -35t-2.5 -27.5l-0.5 -11.5h2zM101 207q0 -30 6 -59.5t19.5 -53t35.5 -38.5t54 -16
q38 0 62.5 14t39 37.5t20.5 53.5t6 62t-6 60.5t-20 50t-38 34t-60 12.5q-52 0 -85.5 -38t-33.5 -119zM142 398q-25 10 -41 26.5t-25 37.5t-12 45.5t-3 49.5q0 38 10 72t30 59.5t50 40.5t71 15q44 0 75 -15t50.5 -41t28 -61.5t8.5 -75.5q0 -23 -4 -46.5t-13.5 -43.5
t-25 -36.5t-37.5 -26.5v-2q31 -15 51 -36.5t32 -46t17 -52.5t5 -57q0 -58 -12 -96.5t-31 -62.5t-42.5 -36t-46 -17t-41.5 -5.5t-29 -0.5q-36 -1 -67.5 14t-54.5 43.5t-36 68.5t-13 89q0 30 4.5 57.5t16 52.5t32 46.5t53.5 38.5v2z" />
    <glyph glyph-name="nine" unicode="9" 
d="M221 690q-36 0 -58.5 -20t-35.5 -49t-17.5 -62.5t-4.5 -61.5q0 -30 4 -62.5t17 -59.5t35.5 -44.5t60.5 -17.5q36 0 59 15.5t36 40.5t18 55t5 60q0 29 -4.5 65t-17.5 67.5t-36.5 52.5t-60.5 21zM221 744q64 0 101 -34t55.5 -84.5t23 -108.5t4.5 -106q-2 -35 -2.5 -80
t-5 -92t-15 -92.5t-31.5 -81t-55.5 -57.5t-86.5 -22q-69 1 -112 44.5t-43 118.5h60q4 -50 26.5 -79.5t76.5 -29.5q22 0 40 11t31 27.5t21.5 37t13.5 39.5q9 39 13 80.5t4 94.5h-2q-23 -33 -53.5 -52t-73.5 -19q-50 0 -83 22.5t-52.5 57t-27.5 76t-8 78.5t7 81t27 81.5
t55.5 63t91.5 25.5z" />
    <glyph glyph-name="colon" unicode=":" horiz-adv-x="222" 
d="M77 0v88h69v-88h-69zM77 433v88h69v-88h-69z" />
    <glyph glyph-name="semicolon" unicode=";" horiz-adv-x="222" 
d="M77 521h69v-88h-69v88zM77 -99q12 5 18.5 15t9 22t2.5 25v24v13h-30v88h69v-56v-35t-2 -36q-4 -45 -18.5 -66.5t-48.5 -30.5v37z" />
    <glyph glyph-name="less" unicode="&#x3c;" 
d="M19 267l407 234v-56l-353 -195v-5l353 -201v-56l-407 235v44z" />
    <glyph glyph-name="equal" unicode="=" 
d="M424 131h-403v51h403v-51zM424 309h-403v51h403v-51z" />
    <glyph glyph-name="greater" unicode="&#x3e;" 
d="M426 223l-407 -234v56l353 195v5l-353 201v56l407 -235v-44z" />
    <glyph glyph-name="question" unicode="?" horiz-adv-x="389" 
d="M141 0v88h70v-88h-70zM147 171q-2 37 1.5 66t13.5 54.5t25.5 50t36.5 53.5q31 41 53 80.5t22 92.5q0 56 -25.5 91.5t-76.5 35.5q-38 0 -60.5 -13t-34.5 -34.5t-16 -50.5t-4 -61h-62q-1 33 5 70.5t25 69.5t53 53t89 21q33 0 63.5 -10.5t54 -32.5t37.5 -55.5t14 -79.5
q0 -23 -3.5 -45t-13 -46t-27 -52t-44.5 -63q-21 -27 -35 -47.5t-22 -41.5t-11 -46t-2 -60h-56z" />
    <glyph glyph-name="at" unicode="@" horiz-adv-x="800" 
d="M431 564q-41 0 -77 -26t-63 -64.5t-42.5 -82t-15.5 -79.5q0 -57 29 -88.5t71 -31.5q54 0 88 27t45 60l53 158q8 24 5.5 47t-14 41t-31.5 29t-48 10zM564 590h55l-105 -314q-4 -13 -9 -29t-4 -30.5t10 -24.5t32 -10q17 0 36 9.5t36 24t32 30.5t24 30q9 13 18.5 32.5
t17 42.5t12.5 47.5t5 46.5q0 63 -25.5 114t-68.5 87t-98 55.5t-114 19.5q-72 0 -134.5 -28.5t-108.5 -76.5t-72.5 -111.5t-26.5 -133.5t27.5 -132t74.5 -108.5t109.5 -73.5t132.5 -27q81 0 157.5 39t126.5 107h53q-25 -45 -61.5 -81t-81 -61t-94 -38.5t-100.5 -13.5
q-84 0 -156 31t-125 85t-83 126t-30 155q0 81 31.5 152t85 124t125.5 83.5t153 30.5q67 0 130 -22.5t114 -67.5q109 -94 109 -239q0 -26 -5.5 -53t-14 -52t-19 -47t-21.5 -37q-16 -23 -35.5 -43t-42.5 -36t-49 -25t-55 -9q-14 0 -27.5 3t-25 10t-18.5 18t-8 27
q-31 -28 -66 -39t-68 -11t-58.5 12t-43 33t-26 49t-8.5 60q0 52 17.5 107t49.5 100t78.5 74t103.5 29q37 0 69 -17t48 -52z" />
    <glyph glyph-name="A" unicode="A" horiz-adv-x="500" 
d="M350 289l-99 379h-2l-99 -379h200zM288 750l201 -750h-66l-59 231h-228l-61 -231h-63l201 750h75z" />
    <glyph glyph-name="B" unicode="B" horiz-adv-x="500" 
d="M194 422q40 0 72 5.5t54.5 21t35 43.5t12.5 73q0 44 -14.5 69.5t-39 38t-57 16t-69.5 3.5h-61v-270h67zM127 364v-306h81q43 0 76.5 7t57 24.5t35.5 48.5t12 79q0 51 -15 80t-41 44t-61.5 19t-76.5 4h-68zM62 0v750h164q38 0 79 -7t71 -34q31 -27 44 -63.5t13 -78.5
q0 -56 -23.5 -103t-78.5 -67v-2q65 -17 94 -65t29 -114q0 -71 -22.5 -114t-61.5 -65.5t-91.5 -29.5t-113.5 -7h-103z" />
    <glyph glyph-name="C" unicode="C" horiz-adv-x="556" 
d="M492 254q1 -48 -11 -96.5t-38 -87.5t-66.5 -63.5t-96.5 -24.5q-54 0 -91.5 19.5t-61.5 52.5t-37 75.5t-19 88.5t-7 92t-1 86q0 39 2.5 81.5t10 83.5t22 78.5t39 66t60 45.5t85.5 17q51 0 89 -18.5t63.5 -50.5t38.5 -74.5t13 -90.5h-65q-2 33 -10 65t-24.5 56.5
t-42.5 39.5t-64 15q-40 0 -66.5 -17.5t-43.5 -45.5t-25.5 -63.5t-12 -72t-4 -71t-0.5 -59.5q0 -29 0.5 -65.5t4 -74t13 -74t27 -64.5t45.5 -45.5t69 -17.5q42 0 68.5 20.5t42 52t22 69t7.5 72.5h65z" />
    <glyph glyph-name="D" unicode="D" horiz-adv-x="556" 
d="M137 58h78q28 0 58.5 2t56.5 14q37 17 58.5 53.5t31.5 80.5t12.5 89t2.5 79q0 36 -1 79.5t-10 85.5t-29 78t-57 56q-15 8 -33 12t-37.5 5.5t-38.5 1t-36 -1.5h-56v-634zM72 750h134q32 0 62 -2t58 -9t53.5 -21t48.5 -39q19 -23 32.5 -53.5t22.5 -64.5t13 -67.5t4 -61.5
v-68t-2.5 -73t-8.5 -72.5t-18 -65.5q-17 -48 -41 -78t-55.5 -46.5t-70 -22.5t-85.5 -6h-147v750z" />
    <glyph glyph-name="E" unicode="E" 
d="M67 0v750h340v-58h-275v-270h250v-58h-250v-306h280v-58h-345z" />
    <glyph glyph-name="F" unicode="F" 
d="M69 0v750h345v-58h-280v-270h250v-58h-250v-364h-65z" />
    <glyph glyph-name="G" unicode="G" horiz-adv-x="556" 
d="M257 314v58h226v-372h-52l-6 77h-2q-28 -48 -67 -71.5t-96 -23.5q-53 0 -89 19.5t-60 52.5t-37 75t-19.5 87.5t-7.5 90.5t-1 83q0 40 2 83.5t9 85.5t21 80t39 66.5t62 45.5t90 17q47 0 84.5 -18t64 -48.5t40.5 -71t14 -85.5h-62q-4 30 -12.5 60t-24.5 53t-41 37.5
t-61 14.5q-41 0 -69 -17.5t-46 -46.5t-27 -65t-13 -73.5t-4.5 -72t-0.5 -60.5t1 -60.5t5.5 -72t13.5 -73.5t26.5 -65t43.5 -46.5t64 -17.5q35 0 60 13t42 34.5t26.5 49.5t14.5 58.5t7 61t3 57.5h-161z" />
    <glyph glyph-name="H" unicode="H" horiz-adv-x="556" 
d="M68 0v750h65v-319h290v319h65v-750h-65v373h-290v-373h-65z" />
    <glyph glyph-name="I" unicode="I" horiz-adv-x="222" 
d="M79 0v750h65v-750h-65z" />
    <glyph glyph-name="J" unicode="J" horiz-adv-x="389" 
d="M77 219v-16q0 -28 1.5 -57t10.5 -52.5t27.5 -38.5t52.5 -15q29 0 45.5 11t24.5 28.5t10 39.5t2 45v586h65v-590q0 -39 -7.5 -71.5t-25.5 -56.5t-47.5 -37t-72.5 -13q-42 0 -70.5 15.5t-46 41t-25.5 59t-9 69.5v52h65z" />
    <glyph glyph-name="K" unicode="K" horiz-adv-x="500" 
d="M67 0v750h65v-375h2l271 375h75l-222 -303l233 -447h-70l-205 394l-84 -110v-284h-65z" />
    <glyph glyph-name="L" unicode="L" 
d="M74 0v750h65v-692h278v-58h-343z" />
    <glyph glyph-name="M" unicode="M" horiz-adv-x="722" 
d="M138 0h-65v750h109l178 -654h2l182 654h106v-750h-65v685h-2l-186 -685h-69l-188 685h-2v-685z" />
    <glyph glyph-name="N" unicode="N" horiz-adv-x="556" 
d="M423 106h2v644h65v-750h-79l-278 642h-2v-642h-65v750h81z" />
    <glyph glyph-name="O" unicode="O" horiz-adv-x="556" 
d="M282 40q40 0 66.5 17.5t43.5 45.5t25.5 64t12 73t4 72t0.5 62t-0.5 63t-5 73t-14 73t-27 64.5t-45 45.5t-67.5 17q-38 0 -64 -17t-42.5 -44.5t-26 -62.5t-13.5 -71.5t-5 -71.5t-1 -62q0 -29 0.5 -65.5t4 -74t13 -74t27 -64.5t45.5 -45.5t69 -17.5zM276 -18
q-54 0 -91.5 19.5t-61.5 52.5t-37.5 75.5t-19.5 88.5t-7 92t-1 86q0 58 6.5 123t29 120.5t66 92t118.5 36.5q55 0 93 -19t62.5 -51t37.5 -73.5t19.5 -87t7.5 -91.5t1 -87q0 -61 -5 -127.5t-27 -122t-67 -91.5t-124 -36z" />
    <glyph glyph-name="P" unicode="P" horiz-adv-x="500" 
d="M141 397h56q43 0 80 4.5t63.5 20.5t41.5 46t15 80q0 43 -10.5 70.5t-31 43.5t-50.5 22.5t-69 7.5h-95v-295zM76 0v750h133q63 0 110.5 -9t79 -31.5t47.5 -60t16 -95.5q0 -54 -14 -95t-47 -68q-18 -15 -41 -25t-46 -16t-43 -8.5t-31 -2.5h-99v-339h-65z" />
    <glyph glyph-name="Q" unicode="Q" horiz-adv-x="556" 
d="M283 127l36 45l76 -62q16 28 24 63t11.5 71t3.5 70v60q0 27 -0.5 63t-5 73t-14 73t-27 64.5t-45 45.5t-67.5 17q-38 0 -64 -17t-42.5 -44.5t-26 -62.5t-13.5 -71.5t-5 -71.5t-1 -62q0 -29 0.5 -65.5t4 -74t13 -74t27 -64.5t45.5 -45.5t69 -17.5q46 0 77 26zM527 2
l-35 -44l-83 68q-23 -20 -55.5 -32t-77.5 -12q-54 0 -91.5 19.5t-61.5 52t-37.5 75t-19.5 88.5t-7 92t-1 86q0 38 2.5 81t10.5 84.5t22.5 79t39 66t60 45.5t85.5 17q55 0 93 -19t62.5 -51t37.5 -73.5t19.5 -87t7.5 -91.5t1 -87q0 -36 -1.5 -75t-7 -77t-16 -73.5t-29.5 -64.5
z" />
    <glyph glyph-name="R" unicode="R" horiz-adv-x="500" 
d="M128 411h114q8 0 30 3.5t44.5 17.5t40 42.5t17.5 78.5q0 41 -9.5 68t-28.5 42.5t-47.5 22t-66.5 6.5h-94v-281zM128 353v-353h-65v750h145q51 0 93.5 -8.5t73 -30.5t47.5 -59t17 -94q0 -27 -6 -55.5t-19.5 -53.5t-34 -43t-50.5 -24v-2q33 -8 52.5 -24.5t30 -40t14 -53.5
t3.5 -65q1 -14 1 -42t3 -58t9.5 -55.5t20.5 -32.5v-9h-71q-11 24 -16 57.5t-8 68.5t-4 67t-2 53q-3 37 -17.5 58.5t-37 32.5t-51.5 13.5t-61 2.5h-67z" />
    <glyph glyph-name="S" unicode="S" horiz-adv-x="500" 
d="M269 409q41 -17 76.5 -34t61 -40.5t40 -57t14.5 -84.5q0 -48 -15 -87t-43 -66.5t-68 -42.5t-89 -15q-51 0 -90 17t-65.5 48t-39 73t-11.5 92h64q0 -35 7.5 -66.5t24 -55t43.5 -37t66 -13.5q69 0 110 40.5t41 110.5q0 42 -14 68.5t-37.5 43.5t-54 28.5t-62.5 24.5
q-38 15 -69.5 32t-54.5 40.5t-36 55.5t-13 77q0 46 13.5 84t38.5 65.5t61 42.5t82 15q44 0 79.5 -14.5t61 -41t38.5 -63t12 -80.5h-63q3 63 -31.5 102t-97.5 39q-32 0 -56 -11t-40.5 -30.5t-24.5 -46t-8 -57.5q0 -28 5 -48t15.5 -35t28 -26.5t42.5 -22.5z" />
    <glyph glyph-name="T" unicode="T" 
d="M20 692v58h405v-58h-170v-692h-65v692h-170z" />
    <glyph glyph-name="U" unicode="U" horiz-adv-x="556" 
d="M73 750h65v-544q0 -40 5.5 -71t20.5 -52t42 -32t69 -11q44 0 72 12.5t43.5 35.5t21.5 54.5t6 69.5v538h65v-522q0 -55 -9.5 -100t-33 -77.5t-63 -50.5t-100.5 -18q-108 0 -156 56.5t-48 159.5v552z" />
    <glyph glyph-name="V" unicode="V" horiz-adv-x="500" 
d="M14 750h68l168 -665h2l172 665h63l-199 -750h-73z" />
    <glyph glyph-name="W" unicode="W" horiz-adv-x="722" 
d="M520 114h2l120 636h63l-148 -750h-73l-125 642h-2l-122 -642h-73l-145 750h66l114 -633h2l123 633h75z" />
    <glyph glyph-name="X" unicode="X" horiz-adv-x="500" 
d="M27 750h73l149 -301l153 301h72l-186 -363l194 -387h-71l-162 326l-161 -326h-70l193 387z" />
    <glyph glyph-name="Y" unicode="Y" horiz-adv-x="500" 
d="M414 750h68l-200 -431v-319h-65v319l-198 431h72l158 -357z" />
    <glyph glyph-name="Z" unicode="Z" 
d="M34 0v60l307 632h-293v58h363v-56l-309 -636h309v-58h-377z" />
    <glyph glyph-name="bracketleft" unicode="[" horiz-adv-x="278" 
d="M229 -104h-155v872h153v-46h-95v-780h97v-46z" />
    <glyph glyph-name="backslash" unicode="\" horiz-adv-x="222" 
d="M271 -94h-54l-245 844h55z" />
    <glyph glyph-name="bracketright" unicode="]" horiz-adv-x="278" 
d="M49 -104v46h97v780h-95v46h153v-872h-155z" />
    <glyph glyph-name="asciicircum" unicode="^" 
d="M242 750l135 -410h-47l-109 335h-2l-106 -335h-47l135 410h41z" />
    <glyph glyph-name="underscore" unicode="_" horiz-adv-x="500" 
d="M500 -75v-50h-500v50h500z" />
    <glyph glyph-name="grave" unicode="`" horiz-adv-x="333" 
d="M178 606l-138 139h78l111 -139h-51z" />
    <glyph glyph-name="a" unicode="a" horiz-adv-x="389" 
d="M271 298q-29 -16 -57.5 -27.5t-57.5 -23.5q-22 -10 -36 -20t-22 -22.5t-11 -30t-3 -41.5q0 -41 16 -68.5t61 -27.5q29 0 49 11t33 30q18 26 23 59t5 64v97zM41 413q-2 73 36.5 113t110.5 40q35 0 64.5 -9t49.5 -33q19 -24 23 -51.5t4 -56.5v-339q0 -25 7 -31.5t33 -5.5
v-42q-15 -6 -32 -6q-16 0 -32 3q-20 8 -23 19t-8 31h-1q-22 -30 -54 -44.5t-68 -14.5q-38 0 -62 12t-38 33t-19.5 49.5t-5.5 61.5q0 48 16 83.5t60 58.5q37 17 75.5 31t75.5 31q7 3 10.5 10t4.5 12q1 9 1.5 21t0.5 25t-1.5 25t-2.5 21q-6 25 -23.5 40t-55.5 15
q-31 0 -47.5 -9t-25 -23.5t-11.5 -33t-6 -36.5h-56z" />
    <glyph glyph-name="b" unicode="b" 
d="M229 37q42 0 65.5 26t34.5 63t13 77.5t2 70.5q0 28 -2 69t-12.5 79.5t-33 65.5t-63.5 27q-42 0 -64.5 -25.5t-33 -61.5t-12 -75t-1.5 -67v-43t2.5 -53t8.5 -55t18 -49t31 -35.5t47 -13.5zM122 0h-58v750h58v-243h2q26 29 56 44t68 15q35 0 60 -14t42 -37.5t27.5 -53.5
t16 -62t7 -63.5t1.5 -57.5q0 -42 -4 -92.5t-20 -95t-48 -74.5t-87 -30q-41 0 -70 15.5t-49 50.5h-2v-52z" />
    <glyph glyph-name="c" unicode="c" horiz-adv-x="389" 
d="M358 183q0 -38 -7.5 -73.5t-25.5 -63t-47.5 -44t-72.5 -16.5q-61 0 -94.5 28.5t-50 71.5t-20 94.5t-3.5 98.5q0 45 4.5 95t21 93t50 71t90.5 28q37 0 65.5 -14.5t47 -39.5t28 -57t9.5 -66h-57q-1 25 -7.5 48t-18.5 40.5t-29.5 28t-41.5 9.5q-41 -1 -62.5 -27.5
t-30.5 -64.5t-10 -80t-1 -74q0 -29 1.5 -69t11.5 -76t33 -61.5t65 -25.5q30 0 48 14t27.5 35.5t13 47t5.5 49.5h58z" />
    <glyph glyph-name="d" unicode="d" 
d="M213 515q-41 0 -63.5 -28t-33 -67.5t-12.5 -82t-2 -70.5q0 -29 2.5 -68.5t13.5 -75.5t34 -61t64 -25q29 0 48.5 14t31.5 37t18 52t8 58t2 56v46q0 28 -2.5 65t-13.5 70.5t-33 56.5t-62 23zM324 750h58v-750h-58v52h-2q-17 -34 -48 -50t-71 -16q-56 0 -88 30t-47.5 74.5
t-19.5 95t-4 92.5t4.5 92t20.5 93.5t48 73t88 29.5q33 0 64 -15.5t53 -43.5h2v243z" />
    <glyph glyph-name="e" unicode="e" horiz-adv-x="389" 
d="M294 330q0 26 -2.5 58.5t-12.5 60.5t-30.5 47t-55.5 19q-34 0 -53.5 -20t-30 -48.5t-13.5 -60.5t-3 -56h201zM352 279h-259v-43q0 -24 2 -51t7.5 -53.5t17 -47.5t30 -34t47.5 -13q31 0 49 13t28 33.5t14 46t6 50.5h56q0 -38 -8 -73t-26.5 -62t-48 -43t-71.5 -16
q-58 0 -90.5 29t-48 72.5t-19 93.5t-3.5 93q0 42 3.5 92.5t19 95t47.5 74.5t89 30q48 0 78.5 -21.5t48.5 -55t24.5 -74.5t6.5 -80v-56z" />
    <glyph glyph-name="f" unicode="f" horiz-adv-x="222" 
d="M77 501h-59v51h59v60q0 39 4.5 66.5t18 44t39 23t67.5 4.5v-51q-29 1 -44 -3t-21 -14t-6 -27v-40v-63h69v-51h-69v-501h-58v501z" />
    <glyph glyph-name="g" unicode="g" 
d="M209 515q-39 0 -60 -29t-31 -69t-12 -81t-2 -66q0 -29 2 -69t13 -76.5t33.5 -62t64.5 -25.5q40 0 61.5 25t31.5 60.5t12 74t2 65.5q0 33 -0.5 77t-10 83t-33.5 66t-71 27zM324 552h58v-540q0 -45 -8.5 -82t-28.5 -63.5t-52.5 -41t-81.5 -14.5q-30 0 -57 7.5t-48 22.5
t-34 38.5t-14 56.5h59q1 -19 9.5 -32.5t22 -22.5t30 -13.5t33.5 -5.5q45 0 67.5 17t32 43t10.5 57t2 60h-4q-23 -29 -53 -41t-63 -12q-56 0 -88 28t-47.5 70.5t-19 92.5t-3.5 93q0 26 1 58.5t5.5 65t14 63.5t27 55.5t43 39t63.5 14.5q42 0 70.5 -15.5t51.5 -48.5h2v50z" />
    <glyph glyph-name="h" unicode="h" 
d="M63 0v750h58v-247h2q19 31 51 46t67 17q32 2 64.5 -8.5t51.5 -39.5q18 -24 21 -56.5t3 -61.5v-400h-58v389q0 24 -2 46.5t-10.5 40.5t-25.5 28.5t-47 10.5q-41 0 -70.5 -23.5t-46.5 -58.5v-433h-58z" />
    <glyph glyph-name="i" unicode="i" horiz-adv-x="222" 
d="M78 655v95h67v-95h-67zM82 0v552h58v-552h-58z" />
    <glyph glyph-name="j" unicode="j" horiz-adv-x="222" 
d="M150 750v-92h-67v92h67zM21 -135q10 -1 19 0.5t18 3.5q12 4 18 13t9 19.5t3 22.5v22v606h58v-608q0 -30 -3.5 -59t-26.5 -52q-21 -14 -45.5 -18t-49.5 -4v54z" />
    <glyph glyph-name="k" unicode="k" horiz-adv-x="389" 
d="M62 0v750h58v-458h2l177 260h73l-150 -206l153 -346h-61l-133 287l-61 -85v-202h-58z" />
    <glyph glyph-name="l" unicode="l" horiz-adv-x="222" 
d="M82 0v750h58v-750h-58z" />
    <glyph glyph-name="m" unicode="m" horiz-adv-x="667" 
d="M116 0h-58v552h58v-49h2q18 30 49.5 46.5t67.5 16.5q17 0 32.5 -1.5t29.5 -7.5t27.5 -18.5t26.5 -34.5h2q23 32 57.5 47t72.5 15q37 0 61.5 -11t39 -31t20.5 -47.5t6 -60.5v-416h-58v423q0 17 -3.5 34t-12.5 30t-23.5 21t-36.5 8q-51 0 -82 -30t-31 -83v-403h-58v399
q0 23 -2.5 44t-10.5 37t-24.5 25.5t-44.5 9.5q-17 0 -36 -8t-35 -21t-26 -30t-10 -35v-421z" />
    <glyph glyph-name="n" unicode="n" 
d="M123 0h-58v552h58v-54h2q21 31 52.5 49.5t72.5 18.5q27 0 50.5 -9t41 -25.5t27.5 -40t10 -53.5v-438h-58v401q0 24 -2 44.5t-10 36t-24.5 24.5t-44.5 9q-22 0 -43 -8t-37.5 -22.5t-26.5 -34.5t-10 -43v-407z" />
    <glyph glyph-name="o" unicode="o" 
d="M220 37q44 0 68 26t35 63t13 78.5t2 72.5q0 32 -2 73.5t-13.5 78t-36 61.5t-69.5 25q-39 0 -61 -25t-33 -60t-13.5 -74.5t-2.5 -67.5q0 -31 1 -74t11 -82.5t33 -67t68 -27.5zM221 -14q-42 0 -71 13.5t-48 36.5t-30 53.5t-16 64t-6 68.5t-1 67q0 46 6 95.5t24.5 89.5
t53 66t91.5 26q58 0 92 -28t52 -70.5t23 -93.5t5 -96q0 -47 -5 -98.5t-23 -94.5t-52.5 -71t-94.5 -28z" />
    <glyph glyph-name="p" unicode="p" 
d="M116 279q0 -32 1 -73.5t11 -79t33 -63.5t67 -26q41 0 63 26.5t32 63.5t11.5 77t1.5 67q0 28 -1.5 69.5t-11.5 80.5t-31.5 66.5t-61.5 27.5q-45 0 -68.5 -25t-33.5 -61.5t-11 -77.5t-1 -72zM118 -190h-60v742h58v-50h2q19 29 47 46.5t63 17.5q57 0 90 -26.5t50 -67
t21.5 -89.5t4.5 -93q0 -45 -2.5 -98t-17.5 -99t-48 -76.5t-93 -30.5q-37 0 -65 14t-48 45h-2v-235z" />
    <glyph glyph-name="q" unicode="q" 
d="M212 37q44 0 67 26t33 63t11 78.5t1 72.5v44t-2.5 51.5t-9 52t-18.5 45.5t-31 32.5t-47 12.5q-43 0 -65.5 -27t-33 -65t-12 -80t-1.5 -72q0 -29 2 -69t12.5 -76.5t32.5 -62.5t61 -26zM324 552h58v-741h-60v234h-2q-19 -30 -48.5 -44.5t-64.5 -14.5q-59 0 -91 28t-48 71
t-19 93.5t-3 94.5q0 30 1.5 64t6.5 66.5t15.5 62t29 52t46 35.5t67.5 13q35 0 63 -17.5t47 -46.5h2v50z" />
    <glyph glyph-name="r" unicode="r" horiz-adv-x="278" 
d="M124 488h2q22 44 52.5 61.5t78.5 16.5v-61q-68 1 -99 -38.5t-31 -104.5v-362h-58v552h55v-64z" />
    <glyph glyph-name="s" unicode="s" horiz-adv-x="389" 
d="M44 407q-7 75 29.5 117t112.5 42q72 0 111 -41.5t39 -113.5h-57q-2 44 -25.5 74t-69.5 30q-42 0 -62 -23.5t-20 -64.5q0 -33 19 -53t48 -31q37 -17 69.5 -34.5t57.5 -40.5t39.5 -54.5t14.5 -75.5q0 -74 -42.5 -113t-114.5 -39q-81 0 -121 42.5t-40 121.5h59q4 -51 28 -82
t78 -31q46 0 70.5 30t24.5 74q0 36 -18 60t-44.5 41t-58.5 31t-59.5 31.5t-46.5 41.5t-21 61z" />
    <glyph glyph-name="t" unicode="t" horiz-adv-x="222" 
d="M201 -5l-37.5 -5t-37.5 2q-38 14 -49 35t-11 61v413h-50v51h50v162h58v-162h77v-51h-77v-407q0 -7 0.5 -15.5t3.5 -16t9 -13t16 -7.5q11 -5 24 -3.5t24 4.5v-48z" />
    <glyph glyph-name="u" unicode="u" 
d="M321 552h58v-552h-56v51h-2q-26 -35 -60.5 -50t-78.5 -15q-38 0 -61.5 12.5t-37 34t-18.5 50.5t-5 61v408h58v-418q0 -53 22 -77t75 -20q17 1 33.5 9t30 21.5t24.5 30t18 34.5v420z" />
    <glyph glyph-name="v" unicode="v" horiz-adv-x="389" 
d="M195 105h2l117 447h59l-146 -552h-63l-147 552h62z" />
    <glyph glyph-name="w" unicode="w" horiz-adv-x="556" 
d="M397 112h2l89 440h57l-120 -552h-61l-85 433h-2l-85 -433h-64l-117 552h58l90 -440h2l85 440h64z" />
    <glyph glyph-name="x" unicode="x" horiz-adv-x="389" 
d="M193 234l-117 -234h-63l145 289l-135 263h65l105 -213l107 213h67l-138 -263l147 -289h-65z" />
    <glyph glyph-name="y" unicode="y" horiz-adv-x="389" 
d="M28 -137q13 -1 28 -1.5t28.5 2.5t25 10.5t18.5 22.5q11 24 18.5 49.5t13.5 51.5l-143 554h61l114 -447h2l120 447h59l-150 -545q-6 -22 -12.5 -48.5t-16.5 -52.5t-24 -48t-34 -35q-15 -9 -30.5 -11.5t-29.5 -2.5t-26 1.5t-22 1.5v51z" />
    <glyph glyph-name="z" unicode="z" horiz-adv-x="333" 
d="M18 0v55l231 446h-219v51h280v-54l-229 -447h234v-51h-297z" />
    <glyph glyph-name="braceleft" unicode="{" horiz-adv-x="351" 
d="M130 618q0 42 6.5 71t23.5 47t45 25.5t72 6.5v-2q-25 -11 -40.5 -22.5t-24.5 -25t-12 -29.5t-3 -35v-177q0 -26 -3 -47.5t-12.5 -38.5t-27 -30.5t-47.5 -22.5v-2q28 -5 45.5 -15t27.5 -26t13.5 -37t3.5 -47v-190q0 -19 3 -34.5t11.5 -29t24 -25.5t41.5 -23v-2
q-29 0 -56 3t-53 23t-32 48.5t-6 58.5v189q0 23 -2.5 40t-18.5 37q-24 27 -61 30v2q20 5 32 10.5t21 13.5q23 18 26 40t3 48v168z" />
    <glyph glyph-name="bar" unicode="|" horiz-adv-x="222" 
d="M137 750v-1000h-52v1000h52z" />
    <glyph glyph-name="braceright" unicode="}" horiz-adv-x="351" 
d="M221 446q0 -23 2.5 -40t18.5 -37q24 -27 61 -30v-2q-20 -5 -32 -10.5t-21 -13.5q-23 -18 -26 -40t-3 -48v-168q0 -42 -6.5 -71t-23.5 -47t-45.5 -26t-71.5 -6v2q25 10 40.5 22t24.5 25.5t12 29.5t3 35v177q0 25 3 47t12.5 39t27 30.5t47.5 22.5v2q-28 5 -45.5 15
t-27.5 26t-13.5 37t-3.5 47v190q0 19 -3 34.5t-11.5 29t-24 25.5t-41.5 23v2q29 0 56 -3t53 -23t32 -48.5t6 -58.5v-189z" />
    <glyph glyph-name="asciitilde" unicode="~" 
d="M21 214q9 15 20.5 30.5t25 28t30.5 20t38 7.5q22 0 46.5 -8t47.5 -18q24 -10 45.5 -18t36.5 -8q13 0 25 6t22.5 15t18.5 19.5t14 20.5l33 -34q-9 -15 -20.5 -29.5t-25.5 -26t-30.5 -18.5t-36.5 -7q-11 0 -25.5 3.5t-29.5 8.5t-29 10.5t-24 9.5q-16 6 -33 12.5t-35 6.5
q-16 0 -28 -6t-21.5 -16t-17 -21.5t-14.5 -22.5z" />
    <glyph glyph-name="Euro" 
d="M20 309h50q-3 24 -3 55v23q0 12 1 23h-65l18 57h49q8 78 28 131.5t47.5 85.5t61.5 46t70 14q40 0 68 -11t48 -28t32.5 -38t20.5 -42l-24 -76q-20 74 -59.5 106t-85.5 32q-32 0 -56.5 -16.5t-41.5 -45.5t-27.5 -69.5t-15.5 -88.5h260l-18 -57h-246q0 -11 -0.5 -22.5
t-0.5 -22.5q0 -15 0.5 -29.5t1.5 -26.5h215l-17 -57h-193q5 -47 15.5 -85t27.5 -66t40.5 -43t55.5 -15q42 0 77.5 29.5t64.5 83.5v-87q-23 -37 -60 -60t-82 -23q-35 0 -68 13t-60 44t-47 82t-29 127h-71z" />
    <glyph glyph-name="Euro" unicode="&#x20ac;" 
d="M20 309h50q-3 24 -3 55v23q0 12 1 23h-65l18 57h49q8 78 28 131.5t47.5 85.5t61.5 46t70 14q40 0 68 -11t48 -28t32.5 -38t20.5 -42l-24 -76q-20 74 -59.5 106t-85.5 32q-32 0 -56.5 -16.5t-41.5 -45.5t-27.5 -69.5t-15.5 -88.5h260l-18 -57h-246q0 -11 -0.5 -22.5
t-0.5 -22.5q0 -15 0.5 -29.5t1.5 -26.5h215l-17 -57h-193q5 -47 15.5 -85t27.5 -66t40.5 -43t55.5 -15q42 0 77.5 29.5t64.5 83.5v-87q-23 -37 -60 -60t-82 -23q-35 0 -68 13t-60 44t-47 82t-29 127h-71z" />
    <glyph glyph-name="exclamdown" unicode="&#xa1;" horiz-adv-x="222" 
d="M77 464v88h69v-88h-69zM129 376q4 -91 8 -181t4 -181v-199h-64v199q0 91 4 181t8 181h40z" />
    <glyph glyph-name="cent" unicode="&#xa2;" 
d="M256 503q-22 6 -55 -1q-30 -8 -46 -36.5t-23 -64.5t-8 -73.5t-1 -61.5q0 -27 1.5 -55.5t5.5 -55t12 -49t21 -36.5l93 433v0zM201 43q8 -3 17 -4.5t16 -1.5q30 0 47.5 14t27 35t13 46.5t6.5 48.5h56q0 -38 -7.5 -73t-24.5 -62t-46.5 -43t-72.5 -16q-24 0 -43 4l-29 -134
h-44l32 150q-30 13 -47.5 46.5t-26.5 73.5t-11 80.5t-2 68.5q0 43 5 93t22 92t50.5 70t90.5 28q20 0 37 -4l25 116h44l-29 -133q36 -22 54 -63.5t19 -90.5h-56q-2 29 -9 53.5t-21 39.5l-93 -434v0z" />
    <glyph glyph-name="sterling" unicode="&#xa3;" 
d="M19 329v41h88q-17 38 -27 68t-15.5 54t-7 43.5t-1.5 36.5q0 35 13 65t35.5 52.5t52.5 35t65 12.5q52 0 87.5 -16.5t57.5 -45.5t32 -68.5t11 -86.5h-60q-1 30 -6.5 59t-19 52.5t-36.5 38t-58 14.5q-57 0 -85 -36t-28 -90q0 -24 5 -48.5t13 -48t17.5 -46.5t18.5 -45h153
v-41h-138q9 -31 10.5 -68.5t-5.5 -74.5t-24 -70.5t-44 -57.5l2 -2q12 2 26.5 5t32.5 4t38.5 -2t44.5 -12q17 -5 30.5 -8.5t31.5 -3.5q20 0 40 7t37 18l22 -47q-11 -9 -27 -16t-35 -11t-38.5 -4.5t-35.5 3.5l-52 14t-52 13q-21 5 -39 3t-34.5 -8t-30.5 -14.5t-26 -17.5
l-33 37q27 23 48 46t36 48t22.5 54.5t7.5 65.5q0 51 -16 99h-104z" />
    <glyph glyph-name="currency" unicode="&#xa4;" 
d="M384 278q0 32 -12.5 61t-34 51.5t-50 35.5t-61.5 12q-35 1 -65 -11.5t-52.5 -34t-35 -52t-12.5 -65.5q0 -33 12.5 -62t34.5 -50.5t51 -34.5t62 -13q34 0 63.5 13t51.5 34.5t35 51t13 64.5zM40 142q-22 32 -32.5 63.5t-10.5 69.5q0 40 10 72t33 64l-39 39l47 47l40 -38
q30 23 65 33.5t73 10.5t69.5 -11.5t62.5 -32.5l39 38l47 -47l-39 -39q23 -33 33 -66t10 -74q0 -38 -11 -68t-32 -61l39 -38l-47 -48l-39 39q-62 -45 -140 -45q-37 0 -69 12t-61 33l-40 -39l-47 48z" />
    <glyph glyph-name="yen" unicode="&#xa5;" 
d="M255 314v-34h137v-48h-137v-52h135v-48h-135v-132h-65v132h-138v48h138v52h-138v48h138v34l-199 424h72l158 -351l165 351h68z" />
    <glyph glyph-name="brokenbar" unicode="&#xa6;" horiz-adv-x="222" 
d="M137 675v-350h-52v350h52zM85 175h52v-350h-52v350z" />
    <glyph glyph-name="section" unicode="&#xa7;" 
d="M156 477q-35 -15 -57.5 -45t-22.5 -69q0 -38 15.5 -60t45.5 -43l154 -109q32 14 55 43t23 65q0 43 -22 69.5t-54 49.5zM106 220q-39 29 -59.5 61t-20.5 79q0 52 27.5 85t68.5 59q-14 15 -24 29t-17 28t-10 30.5t-3 37.5q0 30 13 57t36 47q25 22 49 28.5t57 6.5
q37 0 66 -13.5t48.5 -36.5t30 -53.5t12.5 -65.5h-55q-2 23 -8 45.5t-18 40t-30.5 28t-45.5 10.5q-42 0 -68.5 -21.5t-29.5 -65.5q-4 -42 14.5 -69.5t51.5 -50.5l112 -76q37 -25 59.5 -49.5t35 -47t17 -43.5t4.5 -39q0 -47 -28 -82.5t-66 -58.5q26 -23 39.5 -54t13.5 -65
q0 -69 -43 -108.5t-111 -39.5q-38 0 -67.5 13t-50 35.5t-31 53.5t-9.5 68h54q-1 -58 26 -91.5t76 -33.5q26 0 45 8.5t31 22.5t18 31t6 35q0 36 -17 62t-45 46z" />
    <glyph glyph-name="dieresis" unicode="&#xa8;" horiz-adv-x="333" 
d="M214 719h64v-102h-64v102zM56 719h64v-102h-64v102z" />
    <glyph glyph-name="copyright" unicode="&#xa9;" horiz-adv-x="800" 
d="M595 304q-4 -35 -19.5 -63t-39.5 -48t-54.5 -30.5t-63.5 -10.5q-48 0 -87 17.5t-67 48t-43 72t-15 89.5q0 49 14.5 90.5t41.5 71.5t65.5 47t87.5 17q34 0 64.5 -10t54.5 -29t39.5 -46.5t21.5 -62.5h-55q-8 46 -43 74t-81 28q-38 0 -66.5 -14t-48 -38.5t-29.5 -57
t-10 -69.5q0 -35 10.5 -68t30.5 -58t49 -40t66 -15q45 0 80.5 28t41.5 77h55zM401 29q69 0 130 27t106.5 74.5t72 110.5t26.5 135t-26.5 134.5t-72 109.5t-106.5 74t-130 27q-70 0 -131 -27t-106.5 -74t-72 -109.5t-26.5 -134.5t26.5 -135t72 -110.5t106.5 -74.5t131 -27z
M401 -18q-80 0 -149.5 31t-122 84.5t-82.5 125t-30 153.5q0 81 30 152.5t82.5 125t122 84.5t149.5 31q79 0 148.5 -31t121.5 -84.5t82 -125t30 -152.5q0 -82 -30 -153.5t-82 -125t-121.5 -84.5t-148.5 -31z" />
    <glyph glyph-name="ordfeminine" unicode="&#xaa;" horiz-adv-x="266" 
d="M178 607q-17 -10 -35 -17t-37 -14q-29 -12 -38 -26t-9 -43q0 -24 11 -41t40 -17q34 0 50 22t18 51v85zM32 676q-2 44 23 68t72 24q48 0 70 -21t22 -69v-204q0 -15 4.5 -19t21.5 -4v-25q-10 -4 -21 -4q-10 0 -21 2q-13 5 -15 11.5t-5 17.5l-1 1q-14 -17 -35 -26t-44 -9
q-47 0 -64.5 25.5t-17.5 68.5q0 29 10.5 50t39.5 35q24 11 49 18.5t49 18.5q4 4 6 5.5t3 4.5t1.5 8t0.5 16q0 15 -1.5 27.5t-7 21.5t-16 14t-29.5 5q-20 0 -31 -6t-16.5 -15.5t-7 -20t-3.5 -19.5h-36z" />
    <glyph glyph-name="guillemotleft" unicode="&#xab;" horiz-adv-x="500" 
d="M270 236v70l141 106v-60l-102 -81l102 -79v-62zM83 236v70l141 106v-60l-101 -81l101 -79v-62z" />
    <glyph glyph-name="logicalnot" unicode="&#xac;" 
d="M424 360v-267h-51v216h-352v51h403z" />
    <glyph glyph-name="registered" unicode="&#xae;" horiz-adv-x="800" 
d="M391 401h49t50 6.5t38.5 23t15.5 49.5q0 25 -10 40.5t-25.5 23t-35.5 10t-40 2.5h-122v-155h80zM591 156h-62l-122 203h-96v-203h-52v440h186q27 0 53.5 -3.5t50.5 -18.5q24 -14 36 -40.5t12 -54.5q0 -32 -10.5 -54.5t-28.5 -37t-43 -21t-53 -7.5zM401 29q69 0 130 27
t106.5 74.5t72 110.5t26.5 135t-26.5 134.5t-72 109.5t-106.5 74t-130 27q-70 0 -131 -27t-106.5 -74t-72 -109.5t-26.5 -134.5t26.5 -135t72 -110.5t106.5 -74.5t131 -27zM401 -18q-80 0 -149.5 31t-122 84.5t-82.5 125t-30 153.5q0 81 30 152.5t82.5 125t122 84.5
t149.5 31q79 0 148.5 -31t121.5 -84.5t82 -125t30 -152.5q0 -82 -30 -153.5t-82 -125t-121.5 -84.5t-148.5 -31z" />
    <glyph glyph-name="macron" unicode="&#xaf;" horiz-adv-x="333" 
d="M315 690v-45h-296v45h296z" />
    <glyph glyph-name="macron" unicode="&#x2c9;" horiz-adv-x="333" 
d="M315 690v-45h-296v45h296z" />
    <glyph glyph-name="degree" unicode="&#xb0;" horiz-adv-x="400" 
d="M310 594q0 22 -9 42t-24 35t-35 24t-43 9t-42.5 -9t-34.5 -24t-23.5 -35t-8.5 -42q0 -23 8.5 -43t23.5 -35t35 -23.5t43 -8.5q22 0 42 8.5t35 23.5t24 35t9 43zM350 594q0 -31 -12 -58.5t-32.5 -47.5t-47.5 -32t-58 -12t-58.5 12t-47.5 32t-32 47.5t-12 58.5t11.5 58
t32 47.5t48 32.5t58.5 12t58 -12t47.5 -32.5t32.5 -47.5t12 -58z" />
    <glyph glyph-name="plusminus" unicode="&#xb1;" 
d="M424 0h-403v51h403v-51zM21 270v51h176v169h51v-169h176v-51h-176v-170h-51v170h-176z" />
    <glyph glyph-name="twosuperior" unicode="&#xb2;" horiz-adv-x="266" 
d="M251 343v-45h-235v31q1 27 6.5 45.5t15.5 33.5t24.5 29.5t33.5 32.5q25 24 44 40.5t32.5 32t20.5 34.5t7 47q0 13 -3.5 27t-10.5 25.5t-18 19.5t-26 10q-22 3 -36 -4t-22.5 -20.5t-11.5 -31.5t-4 -38h-48q-1 26 5.5 50t20.5 42t36.5 29t53.5 11q51 0 83 -32t32 -87
q0 -36 -16.5 -67.5t-41.5 -59t-54 -52t-54 -47.5q-6 -5 -16 -20.5t-11 -35.5h193z" />
    <glyph glyph-name="threesuperior" unicode="&#xb3;" horiz-adv-x="266" 
d="M89 505l-1 45h18q17 0 32.5 4t27.5 13t19 24t7 37q0 31 -12.5 54.5t-51.5 23.5q-18 0 -30 -7t-18.5 -18.5t-9.5 -26t-4 -29.5h-43q0 23 5.5 44.5t18.5 38.5t32.5 27t47.5 10q58 0 86 -33t28 -83q0 -6 -2 -19t-9 -27.5t-21 -29t-39 -23.5v-2q25 -5 41.5 -16.5t26 -27.5
t13 -33.5t3.5 -34.5q0 -46 -16 -71.5t-37 -37.5t-41 -14.5t-28 -2.5q-3 0 -22.5 1t-41.5 12.5t-39.5 37t-16.5 74.5h45q0 -18 3 -34t11 -27t22 -17.5t37 -6.5q42 0 57 26t15 62q0 13 -2 27.5t-10 27.5t-25 22t-47 10h-29z" />
    <glyph glyph-name="acute" unicode="&#xb4;" horiz-adv-x="333" 
d="M104 606l111 139h78l-138 -139h-51z" />
    <glyph glyph-name="mu" unicode="&#xb5;" 
d="M321 552h58v-552h-56v51h-2q-26 -35 -60.5 -50t-78.5 -15q-21 0 -37 7t-27 17v-199h-58v741h58v-418q0 -53 22 -77t75 -20q17 1 33.5 9t30 21.5t24.5 30t18 34.5v420z" />
    <glyph glyph-name="mu" unicode="&#x3bc;" 
d="M321 552h58v-552h-56v51h-2q-26 -35 -60.5 -50t-78.5 -15q-21 0 -37 7t-27 17v-199h-58v741h58v-418q0 -53 22 -77t75 -20q17 1 33.5 9t30 21.5t24.5 30t18 34.5v420z" />
    <glyph glyph-name="paragraph" unicode="&#xb6;" horiz-adv-x="564" 
d="M229 366q-38 0 -70.5 15t-56 41t-36.5 60.5t-13 73.5q0 52 15 88.5t42.5 59.5t65.5 34t84 12h183v-866h-58v799h-98v-799h-58v482z" />
    <glyph glyph-name="periodcentered" unicode="&#xb7;" horiz-adv-x="222" 
d="M77 201v88h69v-88h-69z" />
    <glyph glyph-name="periodcentered" unicode="&#x2219;" horiz-adv-x="222" 
d="M77 201v88h69v-88h-69z" />
    <glyph glyph-name="cedilla" unicode="&#xb8;" horiz-adv-x="333" 
d="M66 -158q15 -5 30.5 -10t32.5 -5q11 0 23 2.5t21.5 8t16 14.5t6.5 22t-8 22t-21.5 13t-30 3t-34.5 -7l-15 13l60 82h38l-46 -57l2 -2q4 2 14.5 4t15.5 2q37 0 59.5 -19t22.5 -53q0 -23 -10.5 -38.5t-26.5 -25.5t-36 -14t-39 -4q-44 0 -90 19z" />
    <glyph glyph-name="onesuperior" unicode="&#xb9;" horiz-adv-x="266" 
d="M57 662q25 1 44.5 4.5t33.5 12.5t22 24.5t11 40.5h42v-446h-50v343q-13 -2 -24.5 -2.5t-24.5 -2.5q-14 -1 -27 -2t-27 0v28z" />
    <glyph glyph-name="ordmasculine" unicode="&#xba;" horiz-adv-x="266" 
d="M129 737q-28 0 -43 -18.5t-21.5 -44.5t-7 -54t1.5 -47q1 -18 2.5 -36t6.5 -34t16 -28.5t31 -18.5q33 -4 51.5 8t27 33t10 47.5t1.5 52.5q0 21 -1.5 45.5t-8.5 45.5t-22.5 35t-43.5 14zM134 768q37 0 59 -16t34 -40.5t15.5 -55t3.5 -59.5q0 -30 -4 -61t-16 -55.5
t-34.5 -40t-59.5 -15.5q-40 0 -62.5 16t-34 41.5t-14 57.5t-2.5 64q0 30 4.5 59t17.5 52.5t35 38t58 14.5z" />
    <glyph glyph-name="guillemotright" unicode="&#xbb;" horiz-adv-x="500" 
d="M230 306v-70l-141 -106v62l102 79l-102 81v60zM276 412l141 -106v-70l-141 -106v62l101 79l-101 81v60z" />
    <glyph glyph-name="onequarter" unicode="&#xbc;" horiz-adv-x="666" 
d="M563 152v224h-2l-124 -224h126zM19 662q25 1 44.5 4.5t33.5 12.5t22 24.5t11 40.5h42v-446h-50v343q-13 -2 -24.5 -2.5t-24.5 -2.5q-14 -1 -27 -2t-27 0v28zM544 744h50l-450 -744h-52zM563 446h47v-294h38v-37h-38v-115h-47v115h-164v44z" />
    <glyph glyph-name="onehalf" unicode="&#xbd;" horiz-adv-x="666" 
d="M2 662q25 1 44.5 4.5t33.5 12.5t22 24.5t11 40.5h42v-446h-50v343q-13 -2 -24.5 -2.5t-24.5 -2.5q-14 -1 -27 -2t-27 0v28zM527 744h50l-450 -744h-52zM664 45v-45h-235v31q1 27 6.5 45.5t15.5 33.5t24.5 29.5t33.5 32.5q25 24 44 40.5t32.5 32t20.5 34.5t7 47
q0 13 -3.5 27t-10.5 25.5t-18 19.5t-26 10q-22 3 -36 -4t-22.5 -20.5t-11.5 -31.5t-4 -38h-48q-1 26 5.5 50t20.5 42t36.5 29t53.5 11q51 0 83 -32t32 -87q0 -36 -16.5 -67.5t-41.5 -59t-54 -52t-54 -47.5q-6 -5 -16 -20.5t-11 -35.5h193z" />
    <glyph glyph-name="threequarters" unicode="&#xbe;" horiz-adv-x="666" 
d="M565 152v224h-2l-124 -224h126zM576 744h50l-450 -744h-52zM93 504l-1 45h18q17 0 32.5 4t27.5 13t19 24t7 37q0 31 -12.5 54.5t-51.5 23.5q-18 0 -30 -7t-18.5 -18.5t-9.5 -26t-4 -29.5h-43q0 23 5.5 44.5t18.5 38.5t32.5 27t47.5 10q58 0 86 -33t28 -83q0 -6 -2 -19
t-9 -27.5t-21 -29t-39 -23.5v-2q25 -5 41.5 -16.5t26 -27.5t13 -33.5t3.5 -34.5q0 -46 -16 -71.5t-37 -37.5t-41 -14.5t-28 -2.5q-3 0 -22.5 1t-41.5 12.5t-39.5 37t-16.5 74.5h45q0 -18 3 -34t11 -27t22 -17.5t37 -6.5q42 0 57 26t15 62q0 13 -2 27.5t-10 27.5t-25 22
t-47 10h-29zM565 446h47v-294h38v-37h-38v-115h-47v115h-164v44z" />
    <glyph glyph-name="questiondown" unicode="&#xbf;" horiz-adv-x="389" 
d="M240 552v-88h-70v88h70zM234 377q2 -37 -1.5 -66t-13.5 -54.5t-25.5 -50.5t-36.5 -53q-31 -41 -53 -80.5t-22 -92.5q0 -56 25.5 -91.5t76.5 -35.5q38 0 60.5 12.5t34.5 34.5t16 51t4 61h62q1 -33 -5 -70.5t-25 -69.5t-53 -53t-89 -21q-33 0 -63.5 10.5t-54 32.5
t-37.5 55.5t-14 79.5q0 23 3.5 45t13 46t27 52t44.5 63q21 27 35 47.5t22 41.5t11 46t2 60h56z" />
    <glyph glyph-name="Agrave" unicode="&#xc0;" horiz-adv-x="500" 
d="M262 804l-138 139h78l111 -139h-51zM350 289l-99 379h-2l-99 -379h200zM288 750l201 -750h-66l-59 231h-228l-61 -231h-63l201 750h75z" />
    <glyph glyph-name="Aacute" unicode="&#xc1;" horiz-adv-x="500" 
d="M188 804l111 139h78l-138 -139h-51zM350 289l-99 379h-2l-99 -379h200zM288 750l201 -750h-66l-59 231h-228l-61 -231h-63l201 750h75z" />
    <glyph glyph-name="Acircumflex" unicode="&#xc2;" horiz-adv-x="500" 
d="M158 804h-64l113 139h67l114 -139h-65l-82 102zM350 289l-99 379h-2l-99 -379h200zM288 750l201 -750h-66l-59 231h-228l-61 -231h-63l201 750h75z" />
    <glyph glyph-name="Atilde" unicode="&#xc3;" horiz-adv-x="500" 
d="M353 825q-29 -8 -53.5 -1t-50.5 20q-17 8 -40 16.5t-43 3.5q-17 -8 -23 -20t-12 -28h-37q3 19 10 36.5t18.5 31t27 21.5t34.5 8q15 0 30.5 -5t31 -12t30.5 -13.5t29 -10.5q34 -9 46.5 5t18.5 41h38q-3 -28 -16 -54t-39 -39zM350 289l-99 379h-2l-99 -379h200zM288 750
l201 -750h-66l-59 231h-228l-61 -231h-63l201 750h75z" />
    <glyph glyph-name="Adieresis" unicode="&#xc4;" horiz-adv-x="500" 
d="M298 917h64v-102h-64v102zM140 917h64v-102h-64v102zM350 289l-99 379h-2l-99 -379h200zM288 750l201 -750h-66l-59 231h-228l-61 -231h-63l201 750h75z" />
    <glyph glyph-name="Aring" unicode="&#xc5;" horiz-adv-x="500" 
d="M250 952q-27 0 -46.5 -19.5t-19.5 -46.5t20 -46.5t46 -19.5t46 20t20 46t-19.5 46t-46.5 20zM250 786q-20 0 -38 8t-31.5 22t-21.5 32t-8 38t8 38t21.5 32t31.5 22t38 8t38 -8t32 -21.5t22 -32t8 -38.5t-8 -38.5t-21.5 -32t-32 -21.5t-38.5 -8zM350 289l-99 379h-2
l-99 -379h200zM288 750l201 -750h-66l-59 231h-228l-61 -231h-63l201 750h75z" />
    <glyph glyph-name="AE" unicode="&#xc6;" horiz-adv-x="722" 
d="M313 692l-142 -405h173v405h-31zM271 750h414v-58h-276v-273h251v-58h-251v-303h279v-58h-344v229h-193l-78 -229h-67z" />
    <glyph glyph-name="Ccedilla" unicode="&#xc7;" horiz-adv-x="556" 
d="M261 -16q-49 4 -83 25t-56 54t-34 75t-17.5 86.5t-6.5 88.5t-1 83t2.5 81.5t10 83.5t22 78.5t39 66t60 45.5t85.5 17q51 0 89 -18.5t63.5 -50.5t38.5 -74.5t13 -90.5h-65q-2 33 -10 65t-24.5 56.5t-42.5 39.5t-64 15q-40 0 -66.5 -17.5t-43.5 -45.5t-25.5 -63.5t-12 -72
t-4 -71t-0.5 -59.5q0 -29 0.5 -65.5t4 -74t13 -74t27 -64.5t45.5 -45.5t69 -17.5q42 0 68.5 20.5t42 52t22 69t7.5 72.5h65q1 -46 -10 -92.5t-34.5 -85t-61 -64t-88.5 -29.5l-33 -40l2 -2q4 2 14.5 4t15.5 2q37 0 59.5 -19t22.5 -53q0 -23 -10.5 -38.5t-26.5 -25.5t-36 -14
t-39 -4q-44 0 -90 19l15 30q15 -5 30.5 -10t32.5 -5q11 0 23 2.5t21.5 8t16 14.5t6.5 22t-8 22t-21.5 13t-30 3t-34.5 -7l-15 13z" />
    <glyph glyph-name="Egrave" unicode="&#xc8;" 
d="M234 804l-138 139h78l111 -139h-51zM67 0v750h340v-58h-275v-270h250v-58h-250v-306h280v-58h-345z" />
    <glyph glyph-name="Eacute" unicode="&#xc9;" 
d="M160 804l111 139h78l-138 -139h-51zM67 0v750h340v-58h-275v-270h250v-58h-250v-306h280v-58h-345z" />
    <glyph glyph-name="Ecircumflex" unicode="&#xca;" 
d="M140 804h-64l113 139h67l114 -139h-65l-82 102zM67 0v750h340v-58h-275v-270h250v-58h-250v-306h280v-58h-345z" />
    <glyph glyph-name="Edieresis" unicode="&#xcb;" 
d="M112 917h64v-102h-64v102zM270 917h64v-102h-64v102zM67 0v750h340v-58h-275v-270h250v-58h-250v-306h280v-58h-345z" />
    <glyph glyph-name="Igrave" unicode="&#xcc;" horiz-adv-x="222" 
d="M123 804l-138 139h78l111 -139h-51zM79 0v750h65v-750h-65z" />
    <glyph glyph-name="Iacute" unicode="&#xcd;" horiz-adv-x="222" 
d="M49 804l111 139h78l-138 -139h-51zM79 0v750h65v-750h-65z" />
    <glyph glyph-name="Icircumflex" unicode="&#xce;" horiz-adv-x="222" 
d="M29 804h-64l113 139h67l114 -139h-65l-82 102zM79 0v750h65v-750h-65z" />
    <glyph glyph-name="Idieresis" unicode="&#xcf;" horiz-adv-x="222" 
d="M1 917h64v-102h-64v102zM159 917h64v-102h-64v102zM79 0v750h65v-750h-65z" />
    <glyph glyph-name="Eth" unicode="&#xd0;" horiz-adv-x="556" 
d="M137 454h136v-54h-136v-342h78q28 0 58.5 2t56.5 14q37 18 58.5 54.5t31.5 80t12.5 88.5t2.5 79q0 54 -3.5 101t-13.5 85.5t-29.5 67t-50.5 45.5q-12 6 -30 9.5t-38 5t-40 2t-37 0.5h-56v-238zM72 400h-72v54h72v296h134q32 0 62 -2t58 -9t53.5 -21t48.5 -39
q18 -19 31.5 -49.5t22.5 -65t13.5 -69.5t4.5 -63v-68t-2.5 -73t-8.5 -72.5t-18 -65.5q-18 -48 -42.5 -78t-55 -46.5t-69 -22.5t-85.5 -6h-147v400z" />
    <glyph glyph-name="Ntilde" unicode="&#xd1;" horiz-adv-x="556" 
d="M381 825q-29 -8 -53.5 -1t-50.5 20q-17 8 -40 16.5t-43 3.5q-17 -8 -23 -20t-12 -28h-37q3 19 10 36.5t18.5 31t27 21.5t34.5 8q15 0 30.5 -5t31 -12t30.5 -13.5t29 -10.5q34 -9 46.5 5t18.5 41h38q-3 -28 -16 -54t-39 -39zM423 106h2v644h65v-750h-79l-278 642h-2v-642
h-65v750h81z" />
    <glyph glyph-name="Ograve" unicode="&#xd2;" horiz-adv-x="556" 
d="M290 804l-138 139h78l111 -139h-51zM282 40q40 0 66.5 17.5t43.5 45.5t25.5 64t12 73t4 72t0.5 62t-0.5 63t-5 73t-14 73t-27 64.5t-45 45.5t-67.5 17q-38 0 -64 -17t-42.5 -44.5t-26 -62.5t-13.5 -71.5t-5 -71.5t-1 -62q0 -29 0.5 -65.5t4 -74t13 -74t27 -64.5
t45.5 -45.5t69 -17.5zM276 -18q-54 0 -91.5 19.5t-61.5 52.5t-37.5 75.5t-19.5 88.5t-7 92t-1 86q0 58 6.5 123t29 120.5t66 92t118.5 36.5q55 0 93 -19t62.5 -51t37.5 -73.5t19.5 -87t7.5 -91.5t1 -87q0 -61 -5 -127.5t-27 -122t-67 -91.5t-124 -36z" />
    <glyph glyph-name="Oacute" unicode="&#xd3;" horiz-adv-x="556" 
d="M216 804l111 139h78l-138 -139h-51zM282 40q40 0 66.5 17.5t43.5 45.5t25.5 64t12 73t4 72t0.5 62t-0.5 63t-5 73t-14 73t-27 64.5t-45 45.5t-67.5 17q-38 0 -64 -17t-42.5 -44.5t-26 -62.5t-13.5 -71.5t-5 -71.5t-1 -62q0 -29 0.5 -65.5t4 -74t13 -74t27 -64.5
t45.5 -45.5t69 -17.5zM276 -18q-54 0 -91.5 19.5t-61.5 52.5t-37.5 75.5t-19.5 88.5t-7 92t-1 86q0 58 6.5 123t29 120.5t66 92t118.5 36.5q55 0 93 -19t62.5 -51t37.5 -73.5t19.5 -87t7.5 -91.5t1 -87q0 -61 -5 -127.5t-27 -122t-67 -91.5t-124 -36z" />
    <glyph glyph-name="Ocircumflex" unicode="&#xd4;" horiz-adv-x="556" 
d="M196 804h-64l113 139h67l114 -139h-65l-82 102zM282 40q40 0 66.5 17.5t43.5 45.5t25.5 64t12 73t4 72t0.5 62t-0.5 63t-5 73t-14 73t-27 64.5t-45 45.5t-67.5 17q-38 0 -64 -17t-42.5 -44.5t-26 -62.5t-13.5 -71.5t-5 -71.5t-1 -62q0 -29 0.5 -65.5t4 -74t13 -74
t27 -64.5t45.5 -45.5t69 -17.5zM276 -18q-54 0 -91.5 19.5t-61.5 52.5t-37.5 75.5t-19.5 88.5t-7 92t-1 86q0 58 6.5 123t29 120.5t66 92t118.5 36.5q55 0 93 -19t62.5 -51t37.5 -73.5t19.5 -87t7.5 -91.5t1 -87q0 -61 -5 -127.5t-27 -122t-67 -91.5t-124 -36z" />
    <glyph glyph-name="Otilde" unicode="&#xd5;" horiz-adv-x="556" 
d="M381 825q-29 -8 -53.5 -1t-50.5 20q-17 8 -40 16.5t-43 3.5q-17 -8 -23 -20t-12 -28h-37q3 19 10 36.5t18.5 31t27 21.5t34.5 8q15 0 30.5 -5t31 -12t30.5 -13.5t29 -10.5q34 -9 46.5 5t18.5 41h38q-3 -28 -16 -54t-39 -39zM282 40q40 0 66.5 17.5t43.5 45.5t25.5 64
t12 73t4 72t0.5 62t-0.5 63t-5 73t-14 73t-27 64.5t-45 45.5t-67.5 17q-38 0 -64 -17t-42.5 -44.5t-26 -62.5t-13.5 -71.5t-5 -71.5t-1 -62q0 -29 0.5 -65.5t4 -74t13 -74t27 -64.5t45.5 -45.5t69 -17.5zM276 -18q-54 0 -91.5 19.5t-61.5 52.5t-37.5 75.5t-19.5 88.5t-7 92
t-1 86q0 58 6.5 123t29 120.5t66 92t118.5 36.5q55 0 93 -19t62.5 -51t37.5 -73.5t19.5 -87t7.5 -91.5t1 -87q0 -61 -5 -127.5t-27 -122t-67 -91.5t-124 -36z" />
    <glyph glyph-name="Odieresis" unicode="&#xd6;" horiz-adv-x="556" 
d="M326 917h64v-102h-64v102zM168 917h64v-102h-64v102zM282 40q40 0 66.5 17.5t43.5 45.5t25.5 64t12 73t4 72t0.5 62t-0.5 63t-5 73t-14 73t-27 64.5t-45 45.5t-67.5 17q-38 0 -64 -17t-42.5 -44.5t-26 -62.5t-13.5 -71.5t-5 -71.5t-1 -62q0 -29 0.5 -65.5t4 -74t13 -74
t27 -64.5t45.5 -45.5t69 -17.5zM276 -18q-54 0 -91.5 19.5t-61.5 52.5t-37.5 75.5t-19.5 88.5t-7 92t-1 86q0 58 6.5 123t29 120.5t66 92t118.5 36.5q55 0 93 -19t62.5 -51t37.5 -73.5t19.5 -87t7.5 -91.5t1 -87q0 -61 -5 -127.5t-27 -122t-67 -91.5t-124 -36z" />
    <glyph glyph-name="multiply" unicode="&#xd7;" 
d="M58 40l-37 35l165 165l-165 165l37 36l164 -165l165 165l37 -35l-166 -166l166 -166l-37 -36l-165 166z" />
    <glyph glyph-name="Oslash" unicode="&#xd8;" horiz-adv-x="556" 
d="M398 627q-17 38 -46 60.5t-77 22.5q-38 0 -64 -17t-42.5 -44t-26 -62.5t-13.5 -71.5t-5 -71t-1 -62q0 -40 1.5 -93t12.5 -103zM158 123q17 -36 46.5 -59.5t77.5 -23.5q40 0 66.5 17.5t43.5 46t25.5 64.5t12 73t4 72t0.5 62q0 38 -2 88.5t-13 100.5zM68 -29l-42 27l66 112
q-13 32 -20 68.5t-10 74t-3.5 74.5t-0.5 69q0 58 6.5 123t29 120.5t66 92t118.5 36.5q58 0 96.5 -20.5t62.5 -55.5l47 78l45 -20l-65 -109q13 -31 20 -66.5t10.5 -72.5t4 -73.5t0.5 -69.5q0 -61 -5 -127.5t-27 -122t-67 -91.5t-124 -36q-57 0 -95 21t-61 56z" />
    <glyph glyph-name="Ugrave" unicode="&#xd9;" horiz-adv-x="556" 
d="M290 804l-138 139h78l111 -139h-51zM73 750h65v-544q0 -40 5.5 -71t20.5 -52t42 -32t69 -11q44 0 72 12.5t43.5 35.5t21.5 54.5t6 69.5v538h65v-522q0 -55 -9.5 -100t-33 -77.5t-63 -50.5t-100.5 -18q-108 0 -156 56.5t-48 159.5v552z" />
    <glyph glyph-name="Uacute" unicode="&#xda;" horiz-adv-x="556" 
d="M216 804l111 139h78l-138 -139h-51zM73 750h65v-544q0 -40 5.5 -71t20.5 -52t42 -32t69 -11q44 0 72 12.5t43.5 35.5t21.5 54.5t6 69.5v538h65v-522q0 -55 -9.5 -100t-33 -77.5t-63 -50.5t-100.5 -18q-108 0 -156 56.5t-48 159.5v552z" />
    <glyph glyph-name="Ucircumflex" unicode="&#xdb;" horiz-adv-x="556" 
d="M196 804h-64l113 139h67l114 -139h-65l-82 102zM73 750h65v-544q0 -40 5.5 -71t20.5 -52t42 -32t69 -11q44 0 72 12.5t43.5 35.5t21.5 54.5t6 69.5v538h65v-522q0 -55 -9.5 -100t-33 -77.5t-63 -50.5t-100.5 -18q-108 0 -156 56.5t-48 159.5v552z" />
    <glyph glyph-name="Udieresis" unicode="&#xdc;" horiz-adv-x="556" 
d="M168 917h64v-102h-64v102zM326 917h64v-102h-64v102zM73 750h65v-544q0 -40 5.5 -71t20.5 -52t42 -32t69 -11q44 0 72 12.5t43.5 35.5t21.5 54.5t6 69.5v538h65v-522q0 -55 -9.5 -100t-33 -77.5t-63 -50.5t-100.5 -18q-108 0 -156 56.5t-48 159.5v552z" />
    <glyph glyph-name="Yacute" unicode="&#xdd;" horiz-adv-x="500" 
d="M188 804l111 139h78l-138 -139h-51zM414 750h68l-200 -431v-319h-65v319l-198 431h72l158 -357z" />
    <glyph glyph-name="Thorn" unicode="&#xde;" horiz-adv-x="500" 
d="M141 272h95q78 0 119.5 37.5t41.5 110.5t-41.5 110t-119.5 37h-95v-295zM76 750h65v-125h116q28 0 63.5 -9t67 -32.5t53 -63t21.5 -100.5q0 -56 -18.5 -95t-50 -64t-72.5 -36t-85 -11h-95v-214h-65v750z" />
    <glyph glyph-name="germandbls" unicode="&#xdf;" 
d="M66 0v539q0 44 5.5 85t22.5 73t48.5 51.5t82.5 19.5q40 0 68 -15t46 -40t26.5 -58.5t8.5 -69.5q0 -21 -2.5 -42.5t-11 -42t-23 -38t-38.5 -30.5q30 -8 48.5 -28t29 -49t14 -65.5t3.5 -76.5q0 -34 -3.5 -74.5t-17 -75t-40 -57t-71.5 -20.5q-16 1 -33 6.5t-32 12.5v62
q12 -14 27.5 -22t29.5 -8q27 0 43 13.5t25 37.5t11.5 57t2.5 71q0 52 -6 89t-21 60t-39.5 33t-61.5 8v51q34 0 55.5 7.5t33.5 23t16.5 39t4.5 55.5q0 26 -3.5 50.5t-13.5 43t-29.5 30t-50.5 11.5q-36 0 -56 -15t-29 -38.5t-10.5 -53t-1.5 -58.5v-552h-58z" />
    <glyph glyph-name="agrave" unicode="&#xe0;" horiz-adv-x="389" 
d="M206 606l-138 139h78l111 -139h-51zM271 298q-29 -16 -57.5 -27.5t-57.5 -23.5q-22 -10 -36 -20t-22 -22.5t-11 -30t-3 -41.5q0 -41 16 -68.5t61 -27.5q29 0 49 11t33 30q18 26 23 59t5 64v97zM41 413q-2 73 36.5 113t110.5 40q35 0 64.5 -9t49.5 -33q19 -24 23 -51.5
t4 -56.5v-339q0 -25 7 -31.5t33 -5.5v-42q-15 -6 -32 -6q-16 0 -32 3q-20 8 -23 19t-8 31h-1q-22 -30 -54 -44.5t-68 -14.5q-38 0 -62 12t-38 33t-19.5 49.5t-5.5 61.5q0 48 16 83.5t60 58.5q37 17 75.5 31t75.5 31q7 3 10.5 10t4.5 12q1 9 1.5 21t0.5 25t-1.5 25t-2.5 21
q-6 25 -23.5 40t-55.5 15q-31 0 -47.5 -9t-25 -23.5t-11.5 -33t-6 -36.5h-56z" />
    <glyph glyph-name="aacute" unicode="&#xe1;" horiz-adv-x="389" 
d="M132 606l111 139h78l-138 -139h-51zM271 298q-29 -16 -57.5 -27.5t-57.5 -23.5q-22 -10 -36 -20t-22 -22.5t-11 -30t-3 -41.5q0 -41 16 -68.5t61 -27.5q29 0 49 11t33 30q18 26 23 59t5 64v97zM41 413q-2 73 36.5 113t110.5 40q35 0 64.5 -9t49.5 -33q19 -24 23 -51.5
t4 -56.5v-339q0 -25 7 -31.5t33 -5.5v-42q-15 -6 -32 -6q-16 0 -32 3q-20 8 -23 19t-8 31h-1q-22 -30 -54 -44.5t-68 -14.5q-38 0 -62 12t-38 33t-19.5 49.5t-5.5 61.5q0 48 16 83.5t60 58.5q37 17 75.5 31t75.5 31q7 3 10.5 10t4.5 12q1 9 1.5 21t0.5 25t-1.5 25t-2.5 21
q-6 25 -23.5 40t-55.5 15q-31 0 -47.5 -9t-25 -23.5t-11.5 -33t-6 -36.5h-56z" />
    <glyph glyph-name="acircumflex" unicode="&#xe2;" horiz-adv-x="389" 
d="M112 606h-64l113 139h67l114 -139h-65l-82 102zM271 298q-29 -16 -57.5 -27.5t-57.5 -23.5q-22 -10 -36 -20t-22 -22.5t-11 -30t-3 -41.5q0 -41 16 -68.5t61 -27.5q29 0 49 11t33 30q18 26 23 59t5 64v97zM41 413q-2 73 36.5 113t110.5 40q35 0 64.5 -9t49.5 -33
q19 -24 23 -51.5t4 -56.5v-339q0 -25 7 -31.5t33 -5.5v-42q-15 -6 -32 -6q-16 0 -32 3q-20 8 -23 19t-8 31h-1q-22 -30 -54 -44.5t-68 -14.5q-38 0 -62 12t-38 33t-19.5 49.5t-5.5 61.5q0 48 16 83.5t60 58.5q37 17 75.5 31t75.5 31q7 3 10.5 10t4.5 12q1 9 1.5 21t0.5 25
t-1.5 25t-2.5 21q-6 25 -23.5 40t-55.5 15q-31 0 -47.5 -9t-25 -23.5t-11.5 -33t-6 -36.5h-56z" />
    <glyph glyph-name="atilde" unicode="&#xe3;" horiz-adv-x="389" 
d="M297 627q-29 -8 -53.5 -1t-50.5 20q-17 8 -40 16.5t-43 3.5q-17 -8 -23 -20t-12 -28h-37q3 19 10 36.5t18.5 31t27 21.5t34.5 8q15 0 30.5 -5t31 -12t30.5 -13.5t29 -10.5q34 -9 46.5 5t18.5 41h38q-3 -28 -16 -54t-39 -39zM271 298q-29 -16 -57.5 -27.5t-57.5 -23.5
q-22 -10 -36 -20t-22 -22.5t-11 -30t-3 -41.5q0 -41 16 -68.5t61 -27.5q29 0 49 11t33 30q18 26 23 59t5 64v97zM41 413q-2 73 36.5 113t110.5 40q35 0 64.5 -9t49.5 -33q19 -24 23 -51.5t4 -56.5v-339q0 -25 7 -31.5t33 -5.5v-42q-15 -6 -32 -6q-16 0 -32 3q-20 8 -23 19
t-8 31h-1q-22 -30 -54 -44.5t-68 -14.5q-38 0 -62 12t-38 33t-19.5 49.5t-5.5 61.5q0 48 16 83.5t60 58.5q37 17 75.5 31t75.5 31q7 3 10.5 10t4.5 12q1 9 1.5 21t0.5 25t-1.5 25t-2.5 21q-6 25 -23.5 40t-55.5 15q-31 0 -47.5 -9t-25 -23.5t-11.5 -33t-6 -36.5h-56z" />
    <glyph glyph-name="adieresis" unicode="&#xe4;" horiz-adv-x="389" 
d="M242 719h64v-102h-64v102zM84 719h64v-102h-64v102zM271 298q-29 -16 -57.5 -27.5t-57.5 -23.5q-22 -10 -36 -20t-22 -22.5t-11 -30t-3 -41.5q0 -41 16 -68.5t61 -27.5q29 0 49 11t33 30q18 26 23 59t5 64v97zM41 413q-2 73 36.5 113t110.5 40q35 0 64.5 -9t49.5 -33
q19 -24 23 -51.5t4 -56.5v-339q0 -25 7 -31.5t33 -5.5v-42q-15 -6 -32 -6q-16 0 -32 3q-20 8 -23 19t-8 31h-1q-22 -30 -54 -44.5t-68 -14.5q-38 0 -62 12t-38 33t-19.5 49.5t-5.5 61.5q0 48 16 83.5t60 58.5q37 17 75.5 31t75.5 31q7 3 10.5 10t4.5 12q1 9 1.5 21t0.5 25
t-1.5 25t-2.5 21q-6 25 -23.5 40t-55.5 15q-31 0 -47.5 -9t-25 -23.5t-11.5 -33t-6 -36.5h-56z" />
    <glyph glyph-name="aring" unicode="&#xe5;" horiz-adv-x="389" 
d="M194 762q-27 0 -46.5 -19.5t-19.5 -46.5t20 -46.5t46 -19.5t46 20t20 46t-19.5 46t-46.5 20zM194 596q-20 0 -38 8t-31.5 22t-21.5 32t-8 38t8 38t21.5 32t31.5 22t38 8t38 -8t32 -21.5t22 -32t8 -38.5t-8 -38.5t-21.5 -32t-32 -21.5t-38.5 -8zM271 298
q-29 -16 -57.5 -27.5t-57.5 -23.5q-22 -10 -36 -20t-22 -22.5t-11 -30t-3 -41.5q0 -41 16 -68.5t61 -27.5q29 0 49 11t33 30q18 26 23 59t5 64v97zM41 413q-2 73 36.5 113t110.5 40q35 0 64.5 -9t49.5 -33q19 -24 23 -51.5t4 -56.5v-339q0 -25 7 -31.5t33 -5.5v-42
q-15 -6 -32 -6q-16 0 -32 3q-20 8 -23 19t-8 31h-1q-22 -30 -54 -44.5t-68 -14.5q-38 0 -62 12t-38 33t-19.5 49.5t-5.5 61.5q0 48 16 83.5t60 58.5q37 17 75.5 31t75.5 31q7 3 10.5 10t4.5 12q1 9 1.5 21t0.5 25t-1.5 25t-2.5 21q-6 25 -23.5 40t-55.5 15q-31 0 -47.5 -9
t-25 -23.5t-11.5 -33t-6 -36.5h-56z" />
    <glyph glyph-name="ae" unicode="&#xe6;" horiz-adv-x="611" 
d="M525 332q0 28 -2.5 60t-13 59.5t-31.5 45.5t-58 18q-35 0 -54 -19.5t-28 -47.5t-11 -60t-2 -56h200zM263 296q-26 -21 -59.5 -30.5t-63.5 -24.5q-18 -6 -29.5 -18.5t-17.5 -28t-8.5 -33t-2.5 -34.5q1 -18 5 -34.5t12.5 -29t22.5 -20.5t35 -8q55 0 79 33.5t27 86.5v141z
M322 281q1 -20 1 -46t2 -53t7.5 -53t17 -46.5t30 -33t47.5 -12.5q31 0 49.5 12.5t29 33t14 45.5t5.5 51h56q0 -39 -8 -74t-26.5 -61.5t-48 -42t-72.5 -15.5q-26 0 -45 5t-33.5 15.5t-27 26t-25.5 35.5q-26 -41 -60.5 -61.5t-84.5 -20.5q-39 0 -63.5 12t-38.5 33.5t-19 50.5
t-5 63q0 43 17.5 82t58.5 58q27 12 54 21.5t55 19.5q21 8 33 13.5t17.5 14t6.5 21t1 35.5q0 24 -3 43.5t-12.5 33t-26 21t-43.5 7.5q-23 0 -39.5 -8t-26.5 -22t-14.5 -33t-4.5 -40h-58q2 36 11 64.5t26.5 48.5t45 30.5t67.5 10.5q37 0 68.5 -12t52.5 -44q24 29 49.5 42.5
t64.5 13.5q59 0 91.5 -28t47.5 -70.5t18 -92.5t2 -94h-261z" />
    <glyph glyph-name="ccedilla" unicode="&#xe7;" horiz-adv-x="389" 
d="M184 -12q-53 5 -83 34.5t-44 71.5t-17 91.5t-3 93.5q0 45 4.5 95t21 93t50 71t90.5 28q37 0 65.5 -14.5t47 -39.5t28 -57t9.5 -66h-57q-1 25 -7.5 48t-18.5 40.5t-29.5 28t-41.5 9.5q-41 -1 -62.5 -27.5t-30.5 -64.5t-10 -80t-1 -74q0 -29 1.5 -69t11.5 -76t33 -61.5
t65 -25.5q30 0 48 14t27.5 35.5t13 47t5.5 49.5h58q0 -36 -6.5 -69.5t-22.5 -60.5t-42 -44.5t-65 -20.5l-37 -45l2 -2q4 2 14.5 4t15.5 2q37 0 59.5 -19t22.5 -53q0 -23 -10.5 -38.5t-26.5 -25.5t-36 -14t-39 -4q-44 0 -90 19l15 30q15 -5 30.5 -10t32.5 -5q11 0 23 2.5
t21.5 8t16 14.5t6.5 22t-8 22t-21.5 13t-30 3t-34.5 -7l-15 13z" />
    <glyph glyph-name="egrave" unicode="&#xe8;" horiz-adv-x="389" 
d="M206 606l-138 139h78l111 -139h-51zM294 330q0 26 -2.5 58.5t-12.5 60.5t-30.5 47t-55.5 19q-34 0 -53.5 -20t-30 -48.5t-13.5 -60.5t-3 -56h201zM352 279h-259v-43q0 -24 2 -51t7.5 -53.5t17 -47.5t30 -34t47.5 -13q31 0 49 13t28 33.5t14 46t6 50.5h56q0 -38 -8 -73
t-26.5 -62t-48 -43t-71.5 -16q-58 0 -90.5 29t-48 72.5t-19 93.5t-3.5 93q0 42 3.5 92.5t19 95t47.5 74.5t89 30q48 0 78.5 -21.5t48.5 -55t24.5 -74.5t6.5 -80v-56z" />
    <glyph glyph-name="eacute" unicode="&#xe9;" horiz-adv-x="389" 
d="M132 606l111 139h78l-138 -139h-51zM294 330q0 26 -2.5 58.5t-12.5 60.5t-30.5 47t-55.5 19q-34 0 -53.5 -20t-30 -48.5t-13.5 -60.5t-3 -56h201zM352 279h-259v-43q0 -24 2 -51t7.5 -53.5t17 -47.5t30 -34t47.5 -13q31 0 49 13t28 33.5t14 46t6 50.5h56q0 -38 -8 -73
t-26.5 -62t-48 -43t-71.5 -16q-58 0 -90.5 29t-48 72.5t-19 93.5t-3.5 93q0 42 3.5 92.5t19 95t47.5 74.5t89 30q48 0 78.5 -21.5t48.5 -55t24.5 -74.5t6.5 -80v-56z" />
    <glyph glyph-name="ecircumflex" unicode="&#xea;" horiz-adv-x="389" 
d="M112 606h-64l113 139h67l114 -139h-65l-82 102zM294 330q0 26 -2.5 58.5t-12.5 60.5t-30.5 47t-55.5 19q-34 0 -53.5 -20t-30 -48.5t-13.5 -60.5t-3 -56h201zM352 279h-259v-43q0 -24 2 -51t7.5 -53.5t17 -47.5t30 -34t47.5 -13q31 0 49 13t28 33.5t14 46t6 50.5h56
q0 -38 -8 -73t-26.5 -62t-48 -43t-71.5 -16q-58 0 -90.5 29t-48 72.5t-19 93.5t-3.5 93q0 42 3.5 92.5t19 95t47.5 74.5t89 30q48 0 78.5 -21.5t48.5 -55t24.5 -74.5t6.5 -80v-56z" />
    <glyph glyph-name="edieresis" unicode="&#xeb;" horiz-adv-x="389" 
d="M242 719h64v-102h-64v102zM84 719h64v-102h-64v102zM294 330q0 26 -2.5 58.5t-12.5 60.5t-30.5 47t-55.5 19q-34 0 -53.5 -20t-30 -48.5t-13.5 -60.5t-3 -56h201zM352 279h-259v-43q0 -24 2 -51t7.5 -53.5t17 -47.5t30 -34t47.5 -13q31 0 49 13t28 33.5t14 46t6 50.5h56
q0 -38 -8 -73t-26.5 -62t-48 -43t-71.5 -16q-58 0 -90.5 29t-48 72.5t-19 93.5t-3.5 93q0 42 3.5 92.5t19 95t47.5 74.5t89 30q48 0 78.5 -21.5t48.5 -55t24.5 -74.5t6.5 -80v-56z" />
    <glyph glyph-name="igrave" unicode="&#xec;" horiz-adv-x="200" 
d="M112 606l-138 139h78l111 -139h-51zM71 0v552h58v-552h-58z" />
    <glyph glyph-name="iacute" unicode="&#xed;" horiz-adv-x="200" 
d="M38 606l111 139h78l-138 -139h-51zM71 0v552h58v-552h-58z" />
    <glyph glyph-name="icircumflex" unicode="&#xee;" horiz-adv-x="200" 
d="M7 606h-64l113 139h67l114 -139h-65l-82 102zM71 0v552h58v-552h-58z" />
    <glyph glyph-name="idieresis" unicode="&#xef;" horiz-adv-x="200" 
d="M-10 719h64v-102h-64v102zM148 719h64v-102h-64v102zM71 0v552h58v-552h-58z" />
    <glyph glyph-name="eth" unicode="&#xf0;" 
d="M106 288q0 -41 2 -85t12.5 -81t34 -61t65.5 -24q44 0 68 26t35 63t13 78.5t2 72.5q0 32 -2 73.5t-13.5 78t-36 61.5t-69.5 25q-39 0 -61.5 -25t-33.5 -60t-13.5 -74.5t-2.5 -67.5zM163 714q-10 11 -30.5 29.5t-38.5 33.5l36 31q9 -7 19.5 -16t21 -18.5t20 -18t14.5 -13.5
l73 51l24 -28l-74 -51q45 -48 76.5 -97t52 -102t30 -111t9.5 -124v-11q0 -45 -5.5 -94.5t-23.5 -91.5t-52.5 -69.5t-92.5 -27.5q-64 0 -99 29.5t-51.5 74t-20 98t-3.5 101.5q0 46 6 95.5t24.5 89.5t52.5 66t91 26q20 0 33.5 -4t24.5 -10l2 2q-15 30 -41 66t-53 66l-75 -52
l-25 28z" />
    <glyph glyph-name="ntilde" unicode="&#xf1;" 
d="M325 627q-29 -8 -53.5 -1t-50.5 20q-17 8 -40 16.5t-43 3.5q-17 -8 -23 -20t-12 -28h-37q3 19 10 36.5t18.5 31t27 21.5t34.5 8q15 0 30.5 -5t31 -12t30.5 -13.5t29 -10.5q34 -9 46.5 5t18.5 41h38q-3 -28 -16 -54t-39 -39zM123 0h-58v552h58v-54h2q21 31 52.5 49.5
t72.5 18.5q27 0 50.5 -9t41 -25.5t27.5 -40t10 -53.5v-438h-58v401q0 24 -2 44.5t-10 36t-24.5 24.5t-44.5 9q-22 0 -43 -8t-37.5 -22.5t-26.5 -34.5t-10 -43v-407z" />
    <glyph glyph-name="ograve" unicode="&#xf2;" 
d="M234 606l-138 139h78l111 -139h-51zM220 37q44 0 68 26t35 63t13 78.5t2 72.5q0 32 -2 73.5t-13.5 78t-36 61.5t-69.5 25q-39 0 -61 -25t-33 -60t-13.5 -74.5t-2.5 -67.5q0 -31 1 -74t11 -82.5t33 -67t68 -27.5zM221 -14q-42 0 -71 13.5t-48 36.5t-30 53.5t-16 64
t-6 68.5t-1 67q0 46 6 95.5t24.5 89.5t53 66t91.5 26q58 0 92 -28t52 -70.5t23 -93.5t5 -96q0 -47 -5 -98.5t-23 -94.5t-52.5 -71t-94.5 -28z" />
    <glyph glyph-name="oacute" unicode="&#xf3;" 
d="M160 606l111 139h78l-138 -139h-51zM220 37q44 0 68 26t35 63t13 78.5t2 72.5q0 32 -2 73.5t-13.5 78t-36 61.5t-69.5 25q-39 0 -61 -25t-33 -60t-13.5 -74.5t-2.5 -67.5q0 -31 1 -74t11 -82.5t33 -67t68 -27.5zM221 -14q-42 0 -71 13.5t-48 36.5t-30 53.5t-16 64
t-6 68.5t-1 67q0 46 6 95.5t24.5 89.5t53 66t91.5 26q58 0 92 -28t52 -70.5t23 -93.5t5 -96q0 -47 -5 -98.5t-23 -94.5t-52.5 -71t-94.5 -28z" />
    <glyph glyph-name="ocircumflex" unicode="&#xf4;" 
d="M140 606h-64l113 139h67l114 -139h-65l-82 102zM220 37q44 0 68 26t35 63t13 78.5t2 72.5q0 32 -2 73.5t-13.5 78t-36 61.5t-69.5 25q-39 0 -61 -25t-33 -60t-13.5 -74.5t-2.5 -67.5q0 -31 1 -74t11 -82.5t33 -67t68 -27.5zM221 -14q-42 0 -71 13.5t-48 36.5t-30 53.5
t-16 64t-6 68.5t-1 67q0 46 6 95.5t24.5 89.5t53 66t91.5 26q58 0 92 -28t52 -70.5t23 -93.5t5 -96q0 -47 -5 -98.5t-23 -94.5t-52.5 -71t-94.5 -28z" />
    <glyph glyph-name="otilde" unicode="&#xf5;" 
d="M325 627q-29 -8 -53.5 -1t-50.5 20q-17 8 -40 16.5t-43 3.5q-17 -8 -23 -20t-12 -28h-37q3 19 10 36.5t18.5 31t27 21.5t34.5 8q15 0 30.5 -5t31 -12t30.5 -13.5t29 -10.5q34 -9 46.5 5t18.5 41h38q-3 -28 -16 -54t-39 -39zM220 37q44 0 68 26t35 63t13 78.5t2 72.5
q0 32 -2 73.5t-13.5 78t-36 61.5t-69.5 25q-39 0 -61 -25t-33 -60t-13.5 -74.5t-2.5 -67.5q0 -31 1 -74t11 -82.5t33 -67t68 -27.5zM221 -14q-42 0 -71 13.5t-48 36.5t-30 53.5t-16 64t-6 68.5t-1 67q0 46 6 95.5t24.5 89.5t53 66t91.5 26q58 0 92 -28t52 -70.5t23 -93.5
t5 -96q0 -47 -5 -98.5t-23 -94.5t-52.5 -71t-94.5 -28z" />
    <glyph glyph-name="odieresis" unicode="&#xf6;" 
d="M270 719h64v-102h-64v102zM112 719h64v-102h-64v102zM220 37q44 0 68 26t35 63t13 78.5t2 72.5q0 32 -2 73.5t-13.5 78t-36 61.5t-69.5 25q-39 0 -61 -25t-33 -60t-13.5 -74.5t-2.5 -67.5q0 -31 1 -74t11 -82.5t33 -67t68 -27.5zM221 -14q-42 0 -71 13.5t-48 36.5
t-30 53.5t-16 64t-6 68.5t-1 67q0 46 6 95.5t24.5 89.5t53 66t91.5 26q58 0 92 -28t52 -70.5t23 -93.5t5 -96q0 -47 -5 -98.5t-23 -94.5t-52.5 -71t-94.5 -28z" />
    <glyph glyph-name="divide" unicode="&#xf7;" 
d="M191 491h64v-102h-64v102zM191 102h64v-102h-64v102zM424 271v-51h-403v51h403z" />
    <glyph glyph-name="oslash" unicode="&#xf8;" 
d="M310 457q-13 26 -35.5 42t-57.5 16q-39 0 -61 -25t-33 -60t-13.5 -74.5t-2.5 -67.5q0 -26 0.5 -60t6.5 -69l196 298v0zM128 104q12 -30 34 -48.5t58 -18.5q44 0 68 26t35 63t13 78.5t2 72.5q0 27 -1 61t-9 67zM31 -42l-34 24l74 112q-16 44 -19 95.5t-3 99.5q0 46 6 95.5
t24.5 89.5t53 66t91.5 26q43 0 72 -15.5t49 -41.5l45 69l39 -21l-61 -91q18 -43 23 -93t5 -95q0 -47 -5 -98.5t-23 -94.5t-52.5 -71t-94.5 -28q-48 0 -79.5 17.5t-49.5 46.5z" />
    <glyph glyph-name="ugrave" unicode="&#xf9;" 
d="M234 606l-138 139h78l111 -139h-51zM321 552h58v-552h-56v51h-2q-26 -35 -60.5 -50t-78.5 -15q-38 0 -61.5 12.5t-37 34t-18.5 50.5t-5 61v408h58v-418q0 -53 22 -77t75 -20q17 1 33.5 9t30 21.5t24.5 30t18 34.5v420z" />
    <glyph glyph-name="uacute" unicode="&#xfa;" 
d="M160 606l111 139h78l-138 -139h-51zM321 552h58v-552h-56v51h-2q-26 -35 -60.5 -50t-78.5 -15q-38 0 -61.5 12.5t-37 34t-18.5 50.5t-5 61v408h58v-418q0 -53 22 -77t75 -20q17 1 33.5 9t30 21.5t24.5 30t18 34.5v420z" />
    <glyph glyph-name="ucircumflex" unicode="&#xfb;" 
d="M140 596h-64l113 139h67l114 -139h-65l-82 102zM321 552h58v-552h-56v51h-2q-26 -35 -60.5 -50t-78.5 -15q-38 0 -61.5 12.5t-37 34t-18.5 50.5t-5 61v408h58v-418q0 -53 22 -77t75 -20q17 1 33.5 9t30 21.5t24.5 30t18 34.5v420z" />
    <glyph glyph-name="udieresis" unicode="&#xfc;" 
d="M112 719h64v-102h-64v102zM270 719h64v-102h-64v102zM321 552h58v-552h-56v51h-2q-26 -35 -60.5 -50t-78.5 -15q-38 0 -61.5 12.5t-37 34t-18.5 50.5t-5 61v408h58v-418q0 -53 22 -77t75 -20q17 1 33.5 9t30 21.5t24.5 30t18 34.5v420z" />
    <glyph glyph-name="yacute" unicode="&#xfd;" horiz-adv-x="389" 
d="M132 606l111 139h78l-138 -139h-51zM28 -137q13 -1 28 -1.5t28.5 2.5t25 10.5t18.5 22.5q11 24 18.5 49.5t13.5 51.5l-143 554h61l114 -447h2l120 447h59l-150 -545q-6 -22 -12.5 -48.5t-16.5 -52.5t-24 -48t-34 -35q-15 -9 -30.5 -11.5t-29.5 -2.5t-26 1.5t-22 1.5v51z
" />
    <glyph glyph-name="thorn" unicode="&#xfe;" 
d="M226 515q-41 0 -63.5 -27t-33 -64.5t-12 -78.5t-1.5 -69t1.5 -69t12 -78.5t33 -64.5t63.5 -27t63.5 27t33 64.5t12 78.5t1.5 69t-1.5 69t-12 78.5t-33 64.5t-63.5 27zM58 750h58v-248h2q19 29 47 46.5t63 17.5q57 0 90 -26.5t50 -67t21.5 -89.5t4.5 -93q0 -45 -3.5 -98
t-19.5 -99t-48 -76.5t-90 -30.5q-37 0 -65 14t-50 45h-2v-235h-58v940z" />
    <glyph glyph-name="ydieresis" unicode="&#xff;" horiz-adv-x="389" 
d="M84 719h64v-102h-64v102zM242 719h64v-102h-64v102zM28 -137q13 -1 28 -1.5t28.5 2.5t25 10.5t18.5 22.5q11 24 18.5 49.5t13.5 51.5l-143 554h61l114 -447h2l120 447h59l-150 -545q-6 -22 -12.5 -48.5t-16.5 -52.5t-24 -48t-34 -35q-15 -9 -30.5 -11.5t-29.5 -2.5
t-26 1.5t-22 1.5v51z" />
    <glyph glyph-name="dotlessi" unicode="&#x131;" horiz-adv-x="200" 
d="M71 0v552h58v-552h-58z" />
    <glyph glyph-name="Lslash" unicode="&#x141;" 
d="M74 0v337l-87 -44v62l87 44v351h65v-318l79 40v-62l-79 -40v-312h278v-58h-343z" />
    <glyph glyph-name="lslash" unicode="&#x142;" horiz-adv-x="222" 
d="M140 476l73 46v-60l-73 -46v-416h-58v380l-76 -48v60l76 48v310h58v-274z" />
    <glyph glyph-name="OE" unicode="&#x152;" horiz-adv-x="778" 
d="M267 40q35 0 58.5 18.5t38.5 48t22 66.5t10 73.5t3 69.5v55v58q0 35 -3.5 73t-11.5 75t-24 66.5t-41.5 48t-63.5 18.5q-34 0 -57 -16.5t-38 -43.5t-23 -61t-11.5 -68.5t-4 -66t-0.5 -54.5q0 -27 -0.5 -64t2.5 -77t10.5 -79t24 -70.5t43 -50.5t66.5 -19zM399 81h-2
q-13 -29 -26.5 -48t-31 -30t-40.5 -16t-55 -5q-45 0 -76.5 21t-52.5 54.5t-33 76.5t-17.5 87t-7 85t-1.5 72q0 37 1 80t7 86.5t18.5 83.5t34.5 71.5t56 50t84 18.5q54 0 87 -27t53 -76h2v85h335v-58h-270v-276h247v-58h-247v-300h274v-58h-339v81z" />
    <glyph glyph-name="oe" unicode="&#x153;" horiz-adv-x="667" 
d="M567 331q0 31 -2.5 63.5t-12 59t-29.5 43.5t-55 18q-34 1 -53 -18.5t-28.5 -48t-12.5 -60.5t-4 -57h197zM200 37q43 0 65.5 26.5t32.5 65t11 80.5t1 73v43q0 25 -3 51t-9 51t-17.5 44.5t-30 31.5t-45.5 12q-30 0 -50 -14t-32 -36.5t-18 -51t-8 -57.5t-2 -56v-46
q0 -27 2.5 -64.5t13 -71t31.5 -57.5t58 -24zM625 280h-257v-46q0 -25 2 -52t7.5 -53t17 -46.5t30.5 -33t47 -12.5q29 0 47.5 13t29 33.5t14.5 45.5t5 49h56q-1 -39 -9 -73.5t-25.5 -61t-46.5 -42t-72 -15.5q-94 0 -133 87q-21 -46 -56 -66.5t-83 -20.5q-60 0 -92.5 29
t-48 73t-18.5 95.5t-3 97.5q0 45 5 95.5t22.5 92.5t51.5 69.5t92 27.5q94 0 131 -87q21 49 51.5 68t82.5 19q49 0 78.5 -21t46 -54.5t22 -74.5t5.5 -81v-55z" />
    <glyph glyph-name="Scaron" unicode="&#x160;" horiz-adv-x="500" 
d="M333 933h65l-114 -139h-67l-113 139h64l83 -101zM269 409q41 -17 76.5 -34t61 -40.5t40 -57t14.5 -84.5q0 -48 -15 -87t-43 -66.5t-68 -42.5t-89 -15q-51 0 -90 17t-65.5 48t-39 73t-11.5 92h64q0 -35 7.5 -66.5t24 -55t43.5 -37t66 -13.5q69 0 110 40.5t41 110.5
q0 42 -14 68.5t-37.5 43.5t-54 28.5t-62.5 24.5q-38 15 -69.5 32t-54.5 40.5t-36 55.5t-13 77q0 46 13.5 84t38.5 65.5t61 42.5t82 15q44 0 79.5 -14.5t61 -41t38.5 -63t12 -80.5h-63q3 63 -31.5 102t-97.5 39q-32 0 -56 -11t-40.5 -30.5t-24.5 -46t-8 -57.5q0 -28 5 -48
t15.5 -35t28 -26.5t42.5 -22.5z" />
    <glyph glyph-name="scaron" unicode="&#x161;" horiz-adv-x="389" 
d="M267 735h65l-114 -139h-67l-113 139h64l83 -101zM44 407q-7 75 29.5 117t112.5 42q72 0 111 -41.5t39 -113.5h-57q-2 44 -25.5 74t-69.5 30q-42 0 -62 -23.5t-20 -64.5q0 -33 19 -53t48 -31q37 -17 69.5 -34.5t57.5 -40.5t39.5 -54.5t14.5 -75.5q0 -74 -42.5 -113
t-114.5 -39q-81 0 -121 42.5t-40 121.5h59q4 -51 28 -82t78 -31q46 0 70.5 30t24.5 74q0 36 -18 60t-44.5 41t-58.5 31t-59.5 31.5t-46.5 41.5t-21 61z" />
    <glyph glyph-name="Ydieresis" unicode="&#x178;" horiz-adv-x="500" 
d="M140 917h64v-102h-64v102zM298 917h64v-102h-64v102zM414 750h68l-200 -431v-319h-65v319l-198 431h72l158 -357z" />
    <glyph glyph-name="Zcaron" unicode="&#x17d;" 
d="M305 923h65l-114 -139h-67l-113 139h64l83 -101zM34 0v60l307 632h-293v58h363v-56l-309 -636h309v-58h-377z" />
    <glyph glyph-name="zcaron" unicode="&#x17e;" horiz-adv-x="333" 
d="M249 725h65l-114 -139h-67l-113 139h64l83 -101zM18 0v55l231 446h-219v51h280v-54l-229 -447h234v-51h-297z" />
    <glyph glyph-name="florin" unicode="&#x192;" 
d="M23 -124q13 -4 26 -6.5t24.5 0.5t22 12t18.5 27q4 10 9 27.5t9.5 37t8 38t5.5 29.5l61 376h-110v46h119l12 64q7 33 17 74t29 75t49 54t77 11l18 -4t17 -6l-13 -55q-3 1 -11.5 4.5t-16.5 5.5q-28 9 -45.5 -6t-28.5 -39.5t-17 -53t-10 -46.5l-15 -78h116v-46h-124
l-62 -381q-5 -30 -12 -67t-21 -70.5t-37.5 -58t-61.5 -28.5q-14 -2 -29.5 -1t-34.5 9z" />
    <glyph glyph-name="circumflex" unicode="&#x2c6;" horiz-adv-x="333" 
d="M84 606h-64l113 139h67l114 -139h-65l-82 102z" />
    <glyph glyph-name="caron" unicode="&#x2c7;" horiz-adv-x="333" 
d="M249 745h65l-114 -139h-67l-113 139h64l83 -101z" />
    <glyph glyph-name="breve" unicode="&#x2d8;" horiz-adv-x="333" 
d="M63 738q7 -41 36 -61t69 -20t69 20t37 61h37q-6 -63 -46.5 -94.5t-101.5 -31.5q-60 0 -97 33.5t-43 92.5h40z" />
    <glyph glyph-name="dotaccent" unicode="&#x2d9;" horiz-adv-x="333" 
d="M135 719h64v-102h-64v102z" />
    <glyph glyph-name="ring" unicode="&#x2da;" horiz-adv-x="333" 
d="M166 762q-27 0 -46.5 -19.5t-19.5 -46.5t20 -46.5t46 -19.5t46 20t20 46t-19.5 46t-46.5 20zM166 596q-20 0 -38 8t-31.5 22t-21.5 32t-8 38t8 38t21.5 32t31.5 22t38 8t38 -8t32 -21.5t22 -32t8 -38.5t-8 -38.5t-21.5 -32t-32 -21.5t-38.5 -8z" />
    <glyph glyph-name="ogonek" unicode="&#x2db;" horiz-adv-x="333" 
d="M238 -173q-14 -8 -34 -13t-34 -5q-41 0 -63.5 20t-23.5 50q1 31 17 64.5t59 74.5l49 -8q-32 -27 -53 -58t-21 -57q0 -17 11.5 -27.5t32.5 -10.5q15 0 30.5 5.5t29.5 13.5v-49z" />
    <glyph glyph-name="tilde" unicode="&#x2dc;" horiz-adv-x="333" 
d="M269 627q-29 -8 -53.5 -1t-50.5 20q-17 8 -40 16.5t-43 3.5q-17 -8 -23 -20t-12 -28h-37q3 19 10 36.5t18.5 31t27 21.5t34.5 8q15 0 30.5 -5t31 -12t30.5 -13.5t29 -10.5q34 -9 46.5 5t18.5 41h38q-3 -28 -16 -54t-39 -39z" />
    <glyph glyph-name="hungarumlaut" unicode="&#x2dd;" horiz-adv-x="333" 
d="M193 606l111 139h78l-138 -139h-51zM64 606l111 139h78l-138 -139h-51z" />
    <glyph glyph-name="endash" unicode="&#x2013;" horiz-adv-x="500" 
d="M0 273v51h500v-51h-500z" />
    <glyph glyph-name="emdash" unicode="&#x2014;" horiz-adv-x="1000" 
d="M0 273v51h1000v-51h-1000z" />
    <glyph glyph-name="quoteleft" unicode="&#x2018;" horiz-adv-x="160" 
d="M111 713q-12 -5 -18.5 -15t-9 -22t-2.5 -25v-24v-13h30v-88h-69v56v35t2 36q4 45 18.5 66.5t48.5 30.5v-37z" />
    <glyph glyph-name="quoteright" unicode="&#x2019;" horiz-adv-x="160" 
d="M49 563q12 5 18.5 15t9 22t2.5 25v24v13h-30v88h69v-56v-35t-2 -36q-4 -45 -18.5 -66.5t-48.5 -30.5v37z" />
    <glyph glyph-name="quotesinglbase" unicode="&#x201a;" horiz-adv-x="222" 
d="M77 -99q12 5 18.5 15t9 22t2.5 25v24v13h-30v88h69v-56v-35t-2 -36q-4 -45 -18.5 -66.5t-48.5 -30.5v37z" />
    <glyph glyph-name="quotedblleft" unicode="&#x201c;" horiz-adv-x="333" 
d="M284 713q-12 -5 -18.5 -15t-9 -22t-2.5 -25v-24v-13h30v-88h-69v56v35t2 36q4 45 18.5 66.5t48.5 30.5v-37zM154 713q-12 -5 -18.5 -15t-9 -22t-2.5 -25v-24v-13h30v-88h-69v56v35t2 36q4 45 18.5 66.5t48.5 30.5v-37z" />
    <glyph glyph-name="quotedblright" unicode="&#x201d;" horiz-adv-x="333" 
d="M49 563q12 5 18.5 15t9 22t2.5 25v24v13h-30v88h69v-56v-35t-2 -36q-4 -45 -18.5 -66.5t-48.5 -30.5v37zM179 563q12 5 18.5 15t9 22t2.5 25v24v13h-30v88h69v-56v-35t-2 -36q-4 -45 -18.5 -66.5t-48.5 -30.5v37z" />
    <glyph glyph-name="quotedblbase" unicode="&#x201e;" horiz-adv-x="330" 
d="M66 -99q12 5 18.5 15t9 22t2.5 25v24v13h-30v88h69v-56v-35t-2 -36q-4 -45 -18.5 -66.5t-48.5 -30.5v37zM196 -99q12 5 18.5 15t9 22t2.5 25v24v13h-30v88h69v-56v-35t-2 -36q-4 -45 -18.5 -66.5t-48.5 -30.5v37z" />
    <glyph glyph-name="dagger" unicode="&#x2020;" 
d="M412 539v-51h-160v-605h-58v605h-162v51h162v229h58v-229h160z" />
    <glyph glyph-name="daggerdbl" unicode="&#x2021;" 
d="M413 157v-51h-162v-223h-58v223h-162v51h162v338h-160v51h160v222h58v-222h162v-51h-162v-338h162z" />
    <glyph glyph-name="bullet" unicode="&#x2022;" horiz-adv-x="606" 
d="M490 375q0 -38 -15 -71.5t-40.5 -59t-59.5 -40.5t-73 -15q-38 0 -71.5 15t-59 40.5t-40.5 59t-15 71.5q0 39 15 73t40.5 59.5t59 40.5t71.5 15q39 0 73 -15t59.5 -40.5t40.5 -59.5t15 -73z" />
    <glyph glyph-name="ellipsis" unicode="&#x2026;" horiz-adv-x="1000" 
d="M466 0v88h69v-88h-69zM799 0v88h69v-88h-69zM133 0v88h69v-88h-69z" />
    <glyph glyph-name="perthousand" unicode="&#x2030;" horiz-adv-x="1000" 
d="M469 741h44l-305 -756h-43zM168 684q-27 0 -43 -15t-23.5 -37t-9.5 -45t-2 -39q0 -76 20.5 -106t59.5 -30q21 0 35 10.5t22.5 29t12 43t3.5 53.5q0 21 -1.5 44.5t-9 43.5t-22.5 34t-42 14zM835 314q-27 0 -43 -15t-23.5 -37t-9.5 -45t-2 -39q0 -76 20.5 -106t59.5 -30
q21 0 35 10.5t22.5 29t12 43t3.5 53.5q0 21 -1.5 44.5t-9 43.5t-22.5 34t-42 14zM513 314q-27 0 -43 -15t-23.5 -37t-9.5 -45t-2 -39q0 -76 20.5 -106t59.5 -30q21 0 35 10.5t22.5 29t12 43t3.5 53.5q0 21 -1.5 44.5t-9 43.5t-22.5 34t-42 14zM835 358q40 0 65.5 -16
t40 -41.5t20 -58t5.5 -65.5q0 -96 -35.5 -137.5t-96.5 -41.5q-43 0 -69 15.5t-40.5 40.5t-19 57t-4.5 66t5.5 67t20.5 58t41 40.5t67 15.5zM168 728q40 0 65.5 -16t40 -41.5t20 -58t5.5 -65.5q0 -96 -35.5 -137.5t-96.5 -41.5q-43 0 -69 15.5t-40.5 40.5t-19 57t-4.5 66
t5.5 67t20.5 58t41 40.5t67 15.5zM513 358q40 0 65.5 -16t40 -41.5t20 -58t5.5 -65.5q0 -96 -35.5 -137.5t-96.5 -41.5q-43 0 -69 15.5t-40.5 40.5t-19 57t-4.5 66t5.5 67t20.5 58t41 40.5t67 15.5z" />
    <glyph glyph-name="guilsinglleft" unicode="&#x2039;" horiz-adv-x="333" 
d="M90 236v70l141 106v-60l-101 -81l101 -79v-62z" />
    <glyph glyph-name="guilsinglright" unicode="&#x203a;" horiz-adv-x="333" 
d="M102 412l141 -106v-70l-141 -106v62l102 79l-102 81v60z" />
    <glyph glyph-name="fraction" unicode="&#x2044;" horiz-adv-x="167" 
d="M282 744h50l-450 -744h-52z" />
    <glyph glyph-name="fraction" unicode="&#x2215;" horiz-adv-x="167" 
d="M282 744h50l-450 -744h-52z" />
    <glyph glyph-name="trademark" unicode="&#x2122;" horiz-adv-x="722" 
d="M292 699h-92v-370h-51v370h-92v51h235v-51zM666 329h-51v368h-2l-94 -368h-36l-93 368h-2v-368h-51v421h88l75 -297h2l78 297h86v-421z" />
    <glyph glyph-name="minus" unicode="&#x2212;" 
d="M424 220h-403v51h403v-51z" />
    <glyph glyph-name="fi" unicode="&#xfb01;" 
d="M376 655h-67v95h67v-95zM314 0v552h58v-552h-58zM84 501h-59v51h59v60q0 39 4.5 66.5t18 44t39 23t67.5 4.5v-51q-29 1 -44 -3t-21 -14t-6 -27v-40v-63h69v-51h-69v-501h-58v501z" />
    <glyph glyph-name="fl" unicode="&#xfb02;" 
d="M314 0v750h58v-750h-58zM84 501h-59v51h59v60q0 39 4.5 66.5t18 44t39 23t67.5 4.5v-51q-29 1 -44 -3t-21 -14t-6 -27v-40v-63h71v-51h-71v-501h-58v501z" />
    <glyph glyph-name="nonbreakingspace" horiz-adv-x="222" 
 />
    </font>
</defs>
</svg>
